<?xml version="1.0" standalone="no"?>
<!DOCTYPE svg PUBLIC "-//W3C//DTD SVG 1.1//EN" "http://www.w3.org/Graphics/SVG/1.1/DTD/svg11.dtd" >
<svg xmlns="http://www.w3.org/2000/svg" xmlns:xlink="http://www.w3.org/1999/xlink" version="1.1">
<metadata></metadata>
<defs>
<font id="agendamedium_italic" horiz-adv-x="1548" >
<font-face units-per-em="2048" ascent="1464" descent="-584" />
<missing-glyph horiz-adv-x="471" />
<glyph unicode="&#xfb01;" horiz-adv-x="1069" d="M68 788l24 140h158l6 35q42 241 181 372t343 131q86 0 154 -18l-35 -152q-58 15 -129 15q-123 0 -208.5 -83t-108.5 -208l-17 -92h551l-164 -928h-186l139 788h-364l-140 -788h-186l139 788h-157z" />
<glyph unicode="&#xfb02;" horiz-adv-x="1150" d="M68 788l24 140h158l4 22q95 516 618 516q154 0 242 -30l-213 -1205q-4 -24 -4 -32q0 -48 26 -77.5t66 -39.5l-119 -119q-63 12 -110 69.5t-47 151.5q0 32 6 70l184 1051q-27 6 -63 6q-71 0 -132.5 -19t-105 -50.5t-76.5 -74t-52.5 -87.5t-27.5 -93l-10 -59h219l-24 -140 h-219l-140 -788h-186l139 788h-157z" />
<glyph horiz-adv-x="0" />
<glyph horiz-adv-x="682" />
<glyph unicode=" "  horiz-adv-x="471" />
<glyph unicode="&#x09;" horiz-adv-x="471" />
<glyph unicode="&#xa0;" horiz-adv-x="471" />
<glyph unicode="!" horiz-adv-x="546" d="M82 94q0 33 56 82t89 49q29 0 67 -42.5t38 -73.5q0 -30 -57.5 -81t-90.5 -51q-29 0 -65.5 42t-36.5 75zM170 369l147 1028h220l-220 -1063z" />
<glyph unicode="&#x22;" horiz-adv-x="641" d="M193 989l53 469h166l-121 -469h-98zM510 989l51 469h166l-119 -469h-98z" />
<glyph unicode="#" horiz-adv-x="882" d="M-33 0l166 412h-88v118h137l103 246h-123v119h172l166 412h133l-166 -412h195l165 412h134l-166 -412h86v-119h-136l-102 -246h121v-118h-170l-166 -412h-133l166 412h-195l-166 -412h-133zM315 530h195l102 246h-194z" />
<glyph unicode="$" horiz-adv-x="958" d="M-10 51l37 176q60 -36 150 -59t181 -23q119 0 202 59.5t83 153.5q0 75 -43 132.5t-147 109.5q-132 65 -194 155.5t-62 211.5q0 141 99 236.5t247 121.5l32 184h117l-30 -176q160 -6 245 -45l-39 -158q-90 37 -231 37q-115 0 -181.5 -55t-66.5 -131q0 -71 38 -122t126 -93 q285 -136 285 -391q0 -156 -105 -266t-311 -129l-31 -179h-117l31 174q-175 9 -315 76z" />
<glyph unicode="%" horiz-adv-x="1425" d="M35 35l1317 1323l84 -84l-1317 -1323zM162 999q0 147 99 240.5t243 93.5q109 0 180.5 -73t71.5 -179q0 -146 -100 -239.5t-242 -93.5q-109 0 -180.5 72.5t-71.5 178.5zM315 1010q0 -54 33.5 -87.5t83.5 -33.5q67 0 118.5 54.5t51.5 127.5q0 55 -33 88t-84 33 q-67 0 -118.5 -54.5t-51.5 -127.5zM719 229q0 147 99 240.5t243 93.5q109 0 180.5 -73t71.5 -179q0 -146 -100 -240t-242 -94q-109 0 -180.5 73t-71.5 179zM872 240q0 -54 33 -87.5t84 -33.5q67 0 118.5 54.5t51.5 127.5q0 55 -33.5 88t-83.5 33q-67 0 -118.5 -54.5 t-51.5 -127.5z" />
<glyph unicode="&#x26;" horiz-adv-x="1236" d="M41 299q0 141 80 238.5t239 169.5q-116 134 -116 282q0 82 35 149t91.5 108.5t124.5 64t138 22.5q125 0 215 -79.5t90 -211.5q0 -108 -87 -208t-220 -175l233 -280q113 124 187 276l108 -135q-74 -148 -188 -270l207 -250h-230l-106 127q-108 -77 -207.5 -114.5 t-220.5 -37.5q-92 0 -165 28.5t-117.5 75.5t-67.5 103.5t-23 116.5zM221 315q0 -76 59.5 -128t151.5 -52q68 0 149 35t152 88l-268 324q-117 -54 -180.5 -118t-63.5 -149zM424 997q0 -90 108 -213q228 126 228 250q0 61 -40.5 102.5t-107.5 41.5q-77 0 -132.5 -56.5 t-55.5 -124.5z" />
<glyph unicode="'" horiz-adv-x="325" d="M193 989l53 469h166l-121 -469h-98z" />
<glyph unicode="(" horiz-adv-x="552" d="M45 119q0 720 436 1337l181 -41q-100 -136 -175.5 -272.5t-136.5 -295.5t-93 -340t-32 -376q0 -296 94 -596l-184 43q-90 268 -90 541z" />
<glyph unicode=")" horiz-adv-x="552" d="M-119 -426q207 282 321.5 594.5t114.5 689.5q0 296 -94 596l185 -43q90 -268 90 -541q0 -719 -437 -1337z" />
<glyph unicode="*" horiz-adv-x="851" d="M154 1049l49 168l256 -111l30 264l177 39l-74 -303l262 102l64 -149l-304 -76l134 -207l-138 -127l-118 252l-183 -223l-141 72l231 233z" />
<glyph unicode="+" horiz-adv-x="929" d="M78 498l26 149h297l50 281h174l-50 -281h295l-26 -149h-295l-49 -281h-174l49 281h-297z" />
<glyph unicode="," horiz-adv-x="403" d="M-94 -256q67 70 115.5 141.5t62.5 118.5q-25 3 -53.5 34.5t-28.5 57.5q0 32 57 80.5t88 48.5q26 0 65.5 -41t39.5 -75q0 -54 -94 -180t-183 -197z" />
<glyph unicode="-" horiz-adv-x="675" d="M78 498l26 149h512l-26 -149h-512z" />
<glyph unicode="." horiz-adv-x="403" d="M2 94q0 33 56 82t89 49q29 0 67 -42.5t38 -73.5q0 -30 -57.5 -81t-90.5 -51q-29 0 -65.5 42t-36.5 75z" />
<glyph unicode="/" horiz-adv-x="1263" d="M-45 63l1305 1319l102 -98l-1299 -1321z" />
<glyph unicode="0" horiz-adv-x="1134" d="M82 453q0 90 17 187t49.5 196.5t85.5 188t119.5 158t158 110t195.5 40.5q79 0 147.5 -29t122.5 -85.5t85.5 -149.5t31.5 -213q0 -77 -12 -159.5t-37 -169t-61.5 -166t-88.5 -150.5t-114 -123t-142.5 -82.5t-169.5 -30.5q-79 0 -147.5 28.5t-122.5 85t-85.5 150.5 t-31.5 214zM268 451q0 -156 61.5 -234t155.5 -78q77 0 146 45.5t118.5 120t85.5 168.5t54 192t18 189q0 158 -61.5 236.5t-155.5 78.5q-77 0 -146 -45.5t-118.5 -120.5t-85.5 -169t-54 -192.5t-18 -190.5z" />
<glyph unicode="1" horiz-adv-x="677" d="M147 1149l60 145l430 39l-236 -1333h-186l207 1176z" />
<glyph unicode="2" horiz-adv-x="985" d="M-35 0l8 37q138 124 246.5 228t207.5 210.5t164 194t103.5 168.5t38.5 143q0 104 -56 146t-153 42q-133 0 -295 -98l-34 156q76 47 169 76.5t181 29.5q168 0 272.5 -90.5t104.5 -259.5q0 -71 -42 -164.5t-105 -182t-143.5 -181t-150.5 -161.5t-133 -124h498l-31 -170 h-850z" />
<glyph unicode="3" horiz-adv-x="866" d="M37 12v174q56 -26 97.5 -37.5t98.5 -11.5q68 0 131 20.5t113 58.5t80.5 98t30.5 132q0 91 -65.5 155.5t-162.5 64.5q-22 0 -36 -2l-33 151q122 21 210.5 88.5t88.5 145.5q0 56 -43.5 89t-108.5 33q-57 0 -100 -13.5t-98 -45.5l-35 156q130 65 256 65q135 0 223 -77.5 t88 -198.5q0 -106 -70.5 -186.5t-150.5 -104.5q83 -20 150 -102.5t67 -206.5q0 -213 -148 -346.5t-403 -133.5q-100 0 -180 35z" />
<glyph unicode="4" horiz-adv-x="1015" d="M23 498l757 809h125l-141 -805h154l-25 -142h-154l-63 -360h-187l64 360h-522zM217 502h361l57 317q14 87 29 160l-5 2q-70 -87 -139 -160z" />
<glyph unicode="5" horiz-adv-x="921" d="M74 16v181q101 -56 237 -56q132 0 232 90t100 222q0 100 -68.5 158.5t-171.5 58.5q-131 0 -231 -35l137 672h559l-49 -160h-364l-66 -318q25 5 53 5q168 0 275.5 -104.5t107.5 -268.5q0 -98 -38.5 -186t-107.5 -154t-171 -105t-223 -39q-123 0 -211 39z" />
<glyph unicode="6" horiz-adv-x="1042" d="M59 365q0 143 62.5 294t168 281t247 238t297.5 174l157 -84q-199 -83 -368 -226t-263 -297q86 80 226 80q161 0 261.5 -101.5t100.5 -258.5q0 -213 -144.5 -350.5t-354.5 -137.5q-163 0 -276.5 105.5t-113.5 282.5zM242 371q0 -96 68.5 -163t164.5 -67q113 0 199 94 t86 222q0 93 -56 149t-151 56q-205 0 -289 -175q-22 -49 -22 -116z" />
<glyph unicode="7" horiz-adv-x="946" d="M70 0l700 1157h-594l25 150h866l-791 -1307h-206z" />
<glyph unicode="8" horiz-adv-x="1038" d="M47 326q0 59 23.5 116t58.5 99.5t79.5 79t83.5 59t73 35.5q-60 26 -103 96.5t-43 155.5q0 153 125.5 259.5t304.5 106.5q149 0 244.5 -86.5t95.5 -212.5q0 -59 -22.5 -112t-60 -91.5t-78.5 -66t-85 -45.5q66 -26 128.5 -113t62.5 -198q0 -127 -72 -228t-186 -153 t-244 -52q-168 0 -276.5 96t-108.5 255zM223 330q0 -88 62.5 -141.5t158.5 -53.5q119 0 211.5 79.5t92.5 188.5q0 56 -36.5 104t-85 76t-104.5 44q-53 -15 -103.5 -41t-95.5 -62.5t-72.5 -87t-27.5 -106.5zM399 971q0 -61 48 -108.5t128 -69.5q106 28 171 97.5t65 139.5 q0 66 -48 108t-126 42q-92 0 -165 -62.5t-73 -146.5z" />
<glyph unicode="9" horiz-adv-x="1042" d="M98 43q199 84 368 226.5t263 295.5q-86 -80 -225 -80q-161 0 -262 102t-101 259q0 141 67.5 253.5t181 173t251.5 60.5q163 0 276 -105t113 -282q0 -143 -62.5 -294t-167.5 -281t-246.5 -238t-297.5 -174zM330 854q0 -93 56 -149t151 -56q204 0 288 174q23 51 23 117 q0 96 -69 162.5t-165 66.5q-113 0 -198.5 -93.5t-85.5 -221.5z" />
<glyph unicode=":" horiz-adv-x="403" d="M2 94q0 33 56 82t89 49q29 0 67 -42.5t38 -73.5q0 -30 -57.5 -81t-90.5 -51q-29 0 -65.5 42t-36.5 75zM131 819q0 33 56 82t89 49q29 0 67 -42.5t38 -73.5q0 -30 -57.5 -81t-90.5 -51q-29 0 -65.5 42t-36.5 75z" />
<glyph unicode=";" horiz-adv-x="403" d="M-94 -256q67 70 115.5 141.5t62.5 118.5q-25 3 -53.5 34.5t-28.5 57.5q0 32 57 80.5t88 48.5q26 0 65.5 -41t39.5 -75q0 -54 -94 -180t-183 -197zM131 819q0 33 56 82t89 49q29 0 67 -42.5t38 -73.5q0 -30 -57.5 -81t-90.5 -51q-29 0 -65.5 42t-36.5 75z" />
<glyph unicode="&#x3c;" horiz-adv-x="733" d="M88 567l434 369l99 -119l-291 -250l202 -250l-141 -118z" />
<glyph unicode="=" horiz-adv-x="929" d="M47 322l27 149h766l-27 -149h-766zM109 674l26 149h766l-27 -149h-765z" />
<glyph unicode="&#x3e;" horiz-adv-x="733" d="M127 317l293 250l-205 250l143 119l304 -369l-435 -368z" />
<glyph unicode="?" horiz-adv-x="802" d="M166 94q0 33 56 82t89 49q29 0 67 -42.5t38 -73.5q0 -30 -57.5 -81t-90.5 -51q-29 0 -65.5 42t-36.5 75zM182 1321q55 45 133 71.5t160 26.5q149 0 246.5 -86t97.5 -223q0 -81 -34 -153.5t-83.5 -127.5t-142.5 -139q-64 -59 -94.5 -108t-46.5 -111q-21 -86 -21 -141 l-147 35q-2 12 -2 32q0 106 52.5 220t141.5 194q90 78 136.5 146t46.5 143q0 63 -45 109t-127 46q-129 0 -236 -94z" />
<glyph unicode="@" horiz-adv-x="1568" d="M109 545q0 161 65.5 307.5t175.5 252t261 168t315 62.5q134 0 245.5 -43.5t185.5 -118.5t115 -175t41 -214q0 -67 -16 -137.5t-50 -137t-80.5 -118.5t-112.5 -83.5t-142 -31.5q-57 0 -98 37.5t-45 104.5q-37 -68 -106 -105t-161 -37q-94 0 -163.5 73t-69.5 198 q0 104 41.5 195t108.5 151.5t152 95.5t173 35q75 0 135 -24t92 -56l-69 -436q-2 -8 -2 -23q0 -61 39 -61q73 0 150 109.5t77 254.5q0 180 -126 295t-329 115q-172 0 -321 -85.5t-238.5 -236.5t-89.5 -331q0 -108 34.5 -192t93.5 -134t132.5 -75t157.5 -25q145 0 225 71 l-41 -161q-69 -52 -213 -52q-153 0 -276 70t-194.5 200t-71.5 298zM635 551q0 -65 31 -99t86 -34q70 0 131 77t84 205l28 168q-30 13 -63 13q-120 0 -208.5 -95t-88.5 -235z" />
<glyph unicode="A" horiz-adv-x="1267" d="M-51 0l790 1325h72l324 -1325h-193l-84 348h-500l-206 -348h-203zM449 496h372l-73 319q-18 77 -27 160h-4q-43 -95 -84 -160z" />
<glyph unicode="B" horiz-adv-x="1067" d="M41 0l229 1307h344q140 0 237 -79.5t97 -213.5q0 -84 -50.5 -169.5t-123.5 -115.5q78 -24 135.5 -104.5t57.5 -180.5q0 -105 -43 -191t-114 -140t-160 -83.5t-185 -29.5h-424zM264 158h187q82 0 154 33t118.5 98.5t46.5 150.5q0 91 -68 144t-165 53h-187zM377 795h135 q94 0 167 58t73 153q0 69 -51 106t-126 37h-135z" />
<glyph unicode="C" horiz-adv-x="1228" d="M96 565q0 158 60.5 298t169.5 244.5t269.5 165t350.5 60.5q199 0 311 -51l-36 -170q-98 49 -283 49q-142 0 -263.5 -48t-204 -129.5t-129 -189.5t-46.5 -227q0 -128 66.5 -226t168.5 -146t218 -48q175 0 337 86l-43 -194q-70 -32 -146 -48t-194 -16q-86 0 -171.5 23.5 t-164 72.5t-138.5 117.5t-96 166t-36 210.5z" />
<glyph unicode="D" horiz-adv-x="1323" d="M41 0l229 1307h377q136 0 252 -38t199.5 -108t130.5 -173.5t47 -229.5q0 -156 -62 -295.5t-170 -241.5t-264.5 -161.5t-337.5 -59.5h-401zM264 158h170q140 0 260 48t202 129t128.5 191t46.5 232q0 188 -128 289.5t-333 101.5h-170z" />
<glyph unicode="E" horiz-adv-x="952" d="M41 0l229 1307h705l-27 -160h-506l-71 -406h424l-29 -159h-424l-74 -422h578l-29 -160h-776z" />
<glyph unicode="F" horiz-adv-x="884" d="M41 0l229 1307h723l-26 -160h-525l-71 -406h442l-29 -159h-442l-102 -582h-199z" />
<glyph unicode="G" horiz-adv-x="1394" d="M96 565q0 158 60.5 298t169.5 244.5t269.5 165t350.5 60.5q112 0 209.5 -19.5t153.5 -53.5l-37 -170q-50 31 -141.5 51t-192.5 20q-142 0 -263.5 -48t-204 -129.5t-129 -189.5t-46.5 -227q0 -128 66.5 -226t168.5 -146t218 -48q176 0 286 68l49 283h-301l27 149h489 l-92 -522q-189 -150 -504 -150q-86 0 -171.5 23.5t-164 72.5t-138.5 117.5t-96 166t-36 210.5z" />
<glyph unicode="H" horiz-adv-x="1337" d="M41 0l229 1307h199l-98 -566h673l99 566h198l-229 -1307h-199l103 582h-674l-102 -582h-199z" />
<glyph unicode="I" horiz-adv-x="526" d="M72 0l229 1307h199l-230 -1307h-198z" />
<glyph unicode="J" horiz-adv-x="557" d="M-252 -145q162 26 267 135.5t137 288.5l180 1028h198l-184 -1049q-16 -95 -54 -177t-86 -140t-107 -102.5t-116 -69.5t-114 -35z" />
<glyph unicode="K" horiz-adv-x="1087" d="M41 0l231 1307h195l-111 -617l615 617h229l-657 -658l428 -649h-223l-404 612l-108 -612h-195z" />
<glyph unicode="L" horiz-adv-x="917" d="M41 0l229 1307h199l-201 -1147h576l-29 -160h-774z" />
<glyph unicode="M" horiz-adv-x="1699" d="M20 0l342 1307h117l232 -672q62 -182 104 -336h4q68 120 219 336l461 672h129l-112 -1307h-181l51 590q7 108 31 297h-4q-48 -78 -201 -303l-407 -594h-74l-203 594q-16 48 -92 299h-4q-12 -53 -38 -155t-34 -138l-155 -590h-185z" />
<glyph unicode="N" horiz-adv-x="1437" d="M41 0l229 1307h138l454 -625q124 -170 219 -317l4 2q12 98 48 311l110 629h199l-234 -1336h-59l-498 680q-33 45 -72.5 102.5t-93 137t-71.5 106.5l-4 -2q-18 -139 -54 -333l-116 -662h-199z" />
<glyph unicode="O" d="M96 551q0 137 44.5 261t122.5 217.5t179 163t217.5 105t235.5 35.5t227 -39.5t192 -111.5t133.5 -182.5t49.5 -243.5q0 -137 -44.5 -261t-122.5 -217t-179 -162.5t-217.5 -105t-235.5 -35.5t-227 39.5t-192 111t-133.5 182t-49.5 243.5zM297 551q0 -123 59 -217 t152 -140.5t201 -46.5q84 0 168.5 28t159.5 82t133 126.5t92 169.5t34 203q0 125 -59 219t-150.5 140t-199.5 46q-106 0 -211.5 -45t-189.5 -122.5t-136.5 -194t-52.5 -248.5z" />
<glyph unicode="P" horiz-adv-x="956" d="M41 0l229 1307h387q141 0 240.5 -91t99.5 -237q0 -121 -64.5 -215t-169 -142.5t-228.5 -48.5h-197l-100 -573h-197zM367 731h161q114 0 193.5 74t79.5 174q0 78 -58.5 124t-140.5 46h-162z" />
<glyph unicode="Q" d="M96 551q0 137 44.5 261t122.5 217.5t179 163t217.5 105t235.5 35.5t227 -39.5t192 -111.5t133.5 -182.5t49.5 -243.5q0 -141 -48 -268.5t-129.5 -221.5t-185.5 -161t-221 -99l-2 -4q47 -10 150 -63q115 -60 231 -60q72 0 135 31l-118 -164q-27 -12 -78 -12 q-178 0 -328 90q-155 93 -278 156q-108 12 -203 56t-168 114.5t-115.5 174.5t-42.5 226zM297 551q0 -123 59 -217t152 -140.5t201 -46.5q84 0 168.5 28t159.5 82t133 126.5t92 169.5t34 203q0 125 -59 219t-150.5 140t-199.5 46q-106 0 -211.5 -45t-189.5 -122.5 t-136.5 -194t-52.5 -248.5z" />
<glyph unicode="R" horiz-adv-x="1136" d="M41 0l229 1307h410q141 0 240.5 -91t99.5 -237q0 -138 -81 -238t-212 -141l338 -600h-215l-309 573h-203l-100 -573h-197zM367 731h184q114 0 193 74t79 174q0 78 -58 124t-140 46h-185z" />
<glyph unicode="S" horiz-adv-x="976" d="M45 47v178q150 -80 317 -80q123 0 211.5 67t88.5 163q0 72 -42.5 121.5t-150.5 103.5q-132 65 -194 155.5t-62 211.5q0 108 63 193.5t162 129t213 43.5q164 0 273 -45l-39 -158q-101 37 -238 37q-105 0 -173 -54t-68 -132q0 -76 36.5 -124t126.5 -91q142 -68 214.5 -157 t72.5 -218q0 -82 -31 -155t-91.5 -132.5t-161 -94t-228.5 -34.5q-179 0 -299 72z" />
<glyph unicode="T" horiz-adv-x="1058" d="M121 1147l26 160h1039l-27 -160h-420l-202 -1147h-199l203 1147h-420z" />
<glyph unicode="U" horiz-adv-x="1331" d="M115 377q0 51 8 92l147 838h199l-147 -834q-9 -46 -9 -80q0 -113 72 -177t211 -64q166 0 270 89t131 240l146 826h192l-149 -846q-42 -236 -204 -361t-398 -125q-203 0 -336 108.5t-133 293.5z" />
<glyph unicode="V" horiz-adv-x="1142" d="M158 1307h196l133 -623q40 -200 54 -311h4q71 146 164 311l350 623h201l-752 -1325h-64z" />
<glyph unicode="W" horiz-adv-x="1841" d="M168 1307h190l107 -602q38 -231 43 -302h4q70 158 147 302l314 602h166l106 -602q31 -217 39 -302h4q39 91 150 302l315 602h195l-699 -1325h-67l-119 698q-30 166 -51 352h-4q-82 -176 -174 -352l-369 -698h-68z" />
<glyph unicode="X" horiz-adv-x="1175" d="M-41 0l543 670l-283 637h213l146 -328q54 -127 65 -162h4q61 84 123 162l262 328h223l-516 -643l293 -664h-213l-151 342q-1 1 -72 172h-4q-65 -93 -131 -172l-279 -342h-223z" />
<glyph unicode="Y" horiz-adv-x="1236" d="M158 1307h207l194 -369q67 -128 94 -184h4q62 75 158 184l326 369h213l-625 -705l-106 -602h-195l107 602z" />
<glyph unicode="Z" horiz-adv-x="1040" d="M-31 0l8 47l543 737q137 187 279 365l-2 2h-592l26 156h861l-9 -47l-542 -738q-74 -100 -281 -364l2 -2h660l-27 -156h-926z" />
<glyph unicode="[" horiz-adv-x="610" d="M-55 -446l329 1880h435l-25 -146h-252l-280 -1589h251l-24 -145h-434z" />
<glyph unicode="\" horiz-adv-x="1247" d="M172 1284l135 98l838 -1319l-141 -100z" />
<glyph unicode="]" horiz-adv-x="610" d="M-96 -446l24 145h252l281 1589h-252l24 146h435l-330 -1880h-434z" />
<glyph unicode="^" horiz-adv-x="759" d="M170 1135q190 77 362 272q102 -196 267 -272l-131 -111q-113 58 -174 137q-95 -81 -224 -137z" />
<glyph unicode="_" horiz-adv-x="1024" d="M-178 -473l26 149h1031l-27 -149h-1030z" />
<glyph unicode="`" horiz-adv-x="819" d="M352 1200l68 168q65 -73 163.5 -128.5t200.5 -86.5l-114 -100q-106 30 -177 61t-141 86z" />
<glyph unicode="a" horiz-adv-x="1009" d="M45 283q0 150 58 276t152 206.5t209.5 125.5t235.5 45q161 0 267 -18l-162 -918h-154l21 174l-4 2q-103 -199 -330 -199q-120 0 -206.5 82t-86.5 224zM231 295q0 -82 39 -123t107 -41q98 0 199 108.5t133 280.5l47 258q-28 4 -72 4q-85 0 -167 -37.5t-145.5 -101 t-102 -155t-38.5 -193.5z" />
<glyph unicode="b" horiz-adv-x="1058" d="M41 61l248 1397h186l-117 -663l4 -2q95 155 320 155q120 0 208.5 -95.5t88.5 -256.5q0 -135 -53.5 -253.5t-140.5 -197.5t-198 -124.5t-225 -45.5q-99 0 -183 24.5t-138 61.5zM244 158q49 -29 135 -29q106 0 201 63t154 173t59 237q0 92 -46 142.5t-124 50.5 q-101 0 -202 -108.5t-132 -280.5z" />
<glyph unicode="c" horiz-adv-x="864" d="M55 336q0 131 57.5 247.5t151 195.5t212.5 125t241 46q92 0 147 -16l-33 -154q-45 11 -129 11q-87 0 -171.5 -38t-146.5 -99t-100 -140.5t-38 -159.5q0 -93 58.5 -153t152.5 -60q78 0 155.5 29t132.5 84l-45 -197q-96 -80 -274 -80q-65 0 -129 22t-119 64.5t-89 113.5 t-34 159z" />
<glyph unicode="d" horiz-adv-x="1058" d="M47 322q0 135 56 252.5t146 195t202.5 122t226.5 44.5q84 0 133 -6l94 528h187l-258 -1458h-154l20 174l-4 2q-103 -199 -352 -199q-121 0 -209 92.5t-88 252.5zM233 324q0 -92 46 -142.5t124 -50.5q101 0 201.5 108.5t132.5 280.5l47 254q-39 8 -122 8q-79 0 -156 -35 t-137.5 -95t-98 -146.5t-37.5 -181.5z" />
<glyph unicode="e" horiz-adv-x="950" d="M63 373q0 98 34 189t92 160.5t132 121.5t156 79t162 27q126 0 196 -62.5t70 -164.5q0 -124 -87 -217t-232.5 -140t-327.5 -47q9 -81 67 -129.5t158 -48.5q151 0 273 101l-47 -201q-95 -64 -240 -64q-182 0 -294 104.5t-112 291.5zM266 465q124 0 230.5 35.5t164.5 88 t58 105.5q0 92 -96 92q-49 0 -104.5 -21.5t-107.5 -60.5t-92 -102t-53 -137z" />
<glyph unicode="f" horiz-adv-x="655" d="M68 788l24 140h158l10 61q38 229 165 353t327 124q74 0 133 -12l-35 -154q-40 11 -109 11q-61 0 -112.5 -23.5t-85.5 -62t-55.5 -84t-30.5 -94.5l-21 -119h252l-31 -140h-245l-140 -788h-186l139 788h-157z" />
<glyph unicode="g" horiz-adv-x="942" d="M-74 -170q0 120 71 204.5t189 117.5l-90 90q14 46 52 87t81 62q-47 33 -72.5 87.5t-25.5 115.5q0 160 114.5 258t286.5 98q66 0 117 -14q47 -12 117 -12q77 0 125 32l35 -141q-50 -29 -115 -29q25 -40 25 -100q0 -153 -112.5 -257.5t-291.5 -104.5q-133 0 -133 -58 q0 -20 20 -26l240 -88q96 -36 153.5 -103t57.5 -158q0 -159 -135.5 -261.5t-347.5 -102.5q-159 0 -260 88.5t-101 214.5zM94 -156q0 -65 58 -116.5t149 -51.5q127 0 204 60.5t77 132.5q0 47 -28.5 82.5t-82.5 50.5l-143 41q-94 0 -164 -59t-70 -140zM303 608 q0 -56 42.5 -93.5t109.5 -37.5q78 0 142.5 55.5t64.5 126.5q0 57 -42.5 97.5t-109.5 40.5q-85 0 -146 -57t-61 -132z" />
<glyph unicode="h" horiz-adv-x="1036" d="M31 0l258 1458h186l-123 -672l4 -2q62 79 136 122.5t196 43.5q103 0 182.5 -71t79.5 -181q0 -15 -4 -47l-115 -651h-186l115 655q2 10 2 31q0 47 -28 79t-81 32q-57 0 -111 -24t-107 -75.5t-95.5 -147t-65.5 -224.5l-57 -326h-186z" />
<glyph unicode="i" horiz-adv-x="495" d="M61 0l164 928h189l-164 -928h-189zM254 1210q0 31 53 77t84 46q30 0 64 -38.5t34 -67.5q0 -30 -53.5 -75.5t-83.5 -45.5t-64 37.5t-34 66.5z" />
<glyph unicode="j" horiz-adv-x="495" d="M-205 -360q216 83 264 348l166 940h187l-170 -955q-29 -158 -123 -281t-211 -165zM252 1210q0 31 53 77t84 46q30 0 64 -38.5t34 -67.5q0 -30 -53.5 -75.5t-83.5 -45.5t-64 37.5t-34 66.5z" />
<glyph unicode="k" horiz-adv-x="931" d="M31 0l258 1458h186l-170 -964l432 434h226l-463 -463l338 -465h-228l-315 442l-78 -442h-186z" />
<glyph unicode="l" horiz-adv-x="538" d="M100 184q0 32 6 70l213 1204h187l-217 -1227q-4 -24 -4 -32q0 -48 26 -77.5t66 -39.5l-119 -119q-63 12 -110.5 69.5t-47.5 151.5z" />
<glyph unicode="m" horiz-adv-x="1583" d="M20 0l164 928h154l-21 -174l5 -2q46 67 84.5 106t101.5 65.5t145 26.5t151.5 -50t69.5 -130v-18l5 -2q137 200 360 200q101 0 179.5 -71t78.5 -179q0 -17 -4 -49l-115 -651h-186l115 655q1 5 2 16.5t2 16.5q0 47 -25 78t-76 31q-44 0 -85.5 -14t-84 -48.5t-77.5 -87 t-65 -134.5t-48 -187l-57 -326h-187l115 655q1 5 2 16.5t2 16.5q0 47 -24.5 78t-75.5 31q-44 0 -85.5 -14t-84 -48.5t-78 -87t-65.5 -134.5t-48 -187l-57 -326h-187z" />
<glyph unicode="n" horiz-adv-x="1026" d="M20 0l164 928h154l-21 -174l5 -2q45 65 89.5 105.5t112 66.5t154.5 26q103 0 182.5 -71t79.5 -181q0 -15 -4 -47l-115 -651h-186l115 655q2 10 2 29q0 48 -28 80.5t-81 32.5q-57 0 -111 -24t-107 -75.5t-95.5 -147t-65.5 -224.5l-57 -326h-187z" />
<glyph unicode="o" horiz-adv-x="1079" d="M53 356q0 161 79 298.5t210.5 216.5t282.5 79q169 0 274 -102t105 -279q0 -161 -79 -298t-210.5 -215.5t-282.5 -78.5q-169 0 -274 101t-105 278zM244 375q0 -116 55 -175t154 -59q89 0 172.5 55.5t136.5 152t53 204.5q0 114 -55.5 173.5t-153.5 59.5q-90 0 -173.5 -56 t-136 -152t-52.5 -203z" />
<glyph unicode="p" horiz-adv-x="1058" d="M-53 -473l248 1401h153l-20 -174l4 -2q103 198 352 198q120 0 208.5 -95.5t88.5 -256.5q0 -135 -54 -253.5t-142 -197.5t-199 -124.5t-226 -45.5q-90 0 -141 23l-86 -473h-186zM246 156q42 -25 131 -25q74 0 149 37.5t134.5 100t97 151.5t37.5 184q0 92 -46 142.5 t-124 50.5q-101 0 -201.5 -108.5t-132.5 -280.5z" />
<glyph unicode="q" horiz-adv-x="1046" d="M47 330q0 135 58.5 253.5t151.5 197t208 124t229 45.5q183 0 289 -32l-248 -1391h-186l106 604l-4 2q-95 -156 -319 -156q-118 0 -201.5 95.5t-83.5 257.5zM236 334q0 -94 40.5 -143.5t116.5 -49.5q101 0 202 108.5t132 280.5l47 271q-27 6 -96 6q-80 0 -159.5 -37.5 t-142 -100t-101.5 -151.5t-39 -184z" />
<glyph unicode="r" horiz-adv-x="718" d="M41 0l164 928h153l-32 -254l4 -2q42 129 139.5 198.5t226.5 69.5l37 -156h-41q-60 0 -124.5 -34.5t-123 -98t-105 -163.5t-67.5 -220l-47 -268h-184z" />
<glyph unicode="s" horiz-adv-x="735" d="M-12 20v177q100 -62 237 -62q87 0 143 42t56 112q0 67 -80 98q-122 45 -174.5 103.5t-52.5 144.5q0 100 53 173.5t133.5 107.5t175.5 34q61 0 119 -12.5t90 -28.5l-33 -143q-62 35 -186 35q-72 0 -123 -40.5t-51 -98.5q0 -68 80 -97q131 -49 184 -109t53 -155 q0 -135 -111.5 -229.5t-293.5 -94.5q-129 0 -219 43z" />
<glyph unicode="t" horiz-adv-x="718" d="M66 788l24 140h182l33 188l201 96l-49 -284h301l-31 -140h-295l-90 -526q-2 -13 -3 -25q0 -35 21 -59q27 -32 72 -31q48 0 86 31l-37 -162q-41 -24 -112 -24q-105 0 -169 78q-48 58 -48 143q0 29 6 61l90 514h-182z" />
<glyph unicode="u" horiz-adv-x="1026" d="M66 229q0 15 4 47l114 652h187l-115 -656q-2 -10 -2 -28q0 -48 27.5 -80.5t80.5 -32.5q57 0 111 24t107 75.5t95.5 147t65.5 224.5l58 326h186l-164 -928h-153l20 174l-4 2q-68 -99 -149 -149t-207 -50q-103 0 -182.5 71t-79.5 181z" />
<glyph unicode="v" horiz-adv-x="954" d="M123 928h180l96 -410q34 -165 39 -203h4q56 113 113 203l238 410h182l-555 -944h-76z" />
<glyph unicode="w" horiz-adv-x="1452" d="M133 928h172l76 -393q21 -109 29 -195h4q15 28 48.5 96t51.5 99l215 393h135l78 -393q18 -99 29 -195h4q39 84 100 195l215 393h172l-516 -944h-65l-90 446q-23 116 -37 229h-4q-57 -123 -117 -225l-246 -450h-70z" />
<glyph unicode="x" horiz-adv-x="911" d="M-31 0l369 469l-193 459h197l86 -209q5 -13 18.5 -48t20.5 -55h4q60 84 78 107l156 205h206l-360 -463l197 -465h-199l-88 213q-10 26 -37 109h-4q-52 -76 -82 -113l-162 -209h-207z" />
<glyph unicode="y" horiz-adv-x="1013" d="M-94 -371q216 92 420 430l-203 869h190l101 -432q22 -95 43 -207h4q31 57 123 211l250 428h200l-489 -838q-268 -458 -527 -573z" />
<glyph unicode="z" horiz-adv-x="860" d="M-35 0l6 37l377 498q24 32 58 76t75 96t58 73l-4 2h-404l27 146h676l-7 -37l-378 -500q-83 -107 -191 -244l4 -2h469l-24 -145h-742z" />
<glyph unicode="{" horiz-adv-x="712" d="M35 492q111 63 173.5 172t90.5 264q19 110 54.5 198t92 158.5t141 109t191.5 38.5l8 -144q-242 0 -311 -381q-25 -140 -80 -243.5t-153 -184.5q96 -108 96 -274q0 -77 -14 -154q-15 -96 -15 -137q0 -225 195 -225l-58 -138q-151 0 -233 99.5t-82 259.5q0 70 14 147 q15 83 15 154q0 196 -125 281z" />
<glyph unicode="|" horiz-adv-x="487" d="M-12 -473l342 1931h159l-342 -1931h-159z" />
<glyph unicode="}" horiz-adv-x="712" d="M-86 -305q242 0 311 381q25 140 80.5 243t153.5 185q-97 109 -97 274q0 72 15 154q14 89 14 137q0 113 -47.5 169t-146.5 56l57 138q151 0 233 -99.5t82 -259.5q0 -70 -14 -147t-14 -154q0 -195 125 -280q-207 -117 -265 -437q-19 -110 -54.5 -198t-92 -158.5t-141 -109 t-191.5 -38.5z" />
<glyph unicode="~" horiz-adv-x="819" d="M113 461l61 147q96 48 158.5 71t138.5 28l8 -129q115 18 246 88l-61 -144q-81 -48 -148 -71t-149 -29l-9 125q-112 -15 -245 -86z" />
<glyph unicode="&#xa1;" horiz-adv-x="546" d="M57 -86l219 1063l148 -35l-148 -1028h-219zM264 1202q0 33 56.5 82t89.5 49q29 0 66.5 -42.5t37.5 -73.5q0 -30 -57 -81t-90 -51q-29 0 -66 42.5t-37 74.5z" />
<glyph unicode="&#xa2;" horiz-adv-x="864" d="M119 700q0 119 47 226t125.5 184.5t179.5 129t211 67.5l35 202h117l-35 -194q58 -2 129 -17l-33 -153q-51 10 -129 10q-116 0 -222.5 -63.5t-170.5 -164.5t-64 -208q0 -93 58.5 -153t152.5 -60q168 0 289 112l-45 -196q-58 -49 -133 -66l-35 -188h-117l31 174h-21 q-65 0 -129 22t-118.5 64t-88.5 113t-34 159z" />
<glyph unicode="&#xa3;" horiz-adv-x="856" d="M-12 51q144 163 198 457l15 88h-158l20 117h158l29 159q42 229 156.5 341t314.5 112q84 0 158 -33l-35 -157q-64 34 -160 34q-91 0 -156.5 -70.5t-83.5 -168.5l-38 -217h288l-26 -117h-283l-18 -104q-40 -235 -115 -340q86 12 184 12q167 0 295 -43l-35 -152 q-119 49 -290 49q-166 0 -291 -41z" />
<glyph unicode="&#xa4;" horiz-adv-x="991" d="M25 225l155 131q-33 68 -33 140q0 144 107 264l-111 135l93 80l112 -135q100 65 213 65q114 0 189 -63l159 135l72 -88l-160 -135q31 -64 31 -136q0 -144 -107 -264q0 1 27.5 -32t54.5 -66l27 -33l-94 -78l-109 131q-100 -65 -213 -65q-106 0 -184 59l-156 -131zM256 508 q0 -85 51.5 -137t138.5 -52q111 0 203 89.5t92 201.5q0 84 -52.5 135.5t-139.5 51.5q-111 0 -202 -88.5t-91 -200.5z" />
<glyph unicode="&#xa5;" horiz-adv-x="1236" d="M158 1307h207l194 -369q67 -128 94 -184h4q62 75 158 184l326 369h213l-449 -506h135l-20 -117h-219l-72 -80l-6 -37h276l-20 -116h-277l-79 -451h-195l80 451h-279l21 116h278l7 33l-41 84h-224l21 117h137z" />
<glyph unicode="&#xa6;" horiz-adv-x="487" d="M-12 -473l149 844h160l-150 -844h-159zM180 614l150 844h159l-149 -844h-160z" />
<glyph unicode="&#xa7;" horiz-adv-x="952" d="M23 -389l36 166q42 -27 111 -43.5t141 -16.5q103 0 170.5 58.5t67.5 136.5q0 49 -25 84l-405 518l117 287q-16 23 -27.5 65t-11.5 86q0 155 124 266t318 111q178 0 279 -63l-37 -166q-42 26 -110.5 42.5t-141.5 16.5q-103 0 -170.5 -58t-67.5 -136q0 -52 25 -84l401 -519 l-112 -286q16 -23 27 -65.5t11 -86.5q0 -155 -124 -266t-318 -111q-175 0 -278 64zM258 604l367 -465l55 137l-369 463z" />
<glyph unicode="&#xa8;" horiz-adv-x="819" d="M293 1155q0 28 50.5 70.5t80.5 42.5q29 0 60.5 -35t31.5 -64q0 -30 -50.5 -72t-80.5 -42q-28 0 -60 35.5t-32 64.5zM608 1155q0 28 51 70.5t80 42.5t60.5 -35t31.5 -64q0 -30 -50 -72t-79 -42q-30 0 -62 35.5t-32 64.5z" />
<glyph unicode="&#xa9;" horiz-adv-x="1228" d="M55 416q0 132 53.5 251t142 202.5t206.5 132.5t243 49q207 0 341.5 -123t134.5 -318q0 -177 -92 -325t-241 -230t-317 -82q-207 0 -339 122.5t-132 320.5zM170 424q0 -157 98 -251.5t262 -94.5q141 0 263 69t195 190t73 263q0 158 -101.5 252t-267.5 94 q-142 0 -261 -66.5t-190 -187t-71 -268.5zM354 436q0 102 56.5 186t143.5 129.5t183 45.5q68 0 111 -15l-27 -125q-42 11 -92 11q-86 0 -158.5 -70t-72.5 -152q0 -42 27 -69t69 -27q106 0 180 74l-37 -162q-54 -45 -159 -45q-86 0 -155 57t-69 162z" />
<glyph unicode="&#xaa;" horiz-adv-x="811" d="M104 801q0 119 46.5 220t122 165.5t169.5 100.5t191 36q105 0 215 -18l-131 -730h-127l14 140h2q-87 -160 -264 -160q-97 0 -167.5 66.5t-70.5 179.5zM260 807q0 -123 113 -123q78 0 157.5 84t104.5 221l37 201q-24 4 -54 4q-90 0 -172 -49t-134 -139t-52 -199zM293 303 q0 28 50.5 70.5t80.5 42.5q29 0 60.5 -35t31.5 -64q0 -30 -50.5 -72t-80.5 -42q-28 0 -60 35.5t-32 64.5z" />
<glyph unicode="&#xab;" horiz-adv-x="901" d="M6 567q222 143 385 351l88 -115q-87 -125 -227 -244q104 -128 141 -244l-125 -98q-95 218 -262 350zM434 567q226 145 387 351l88 -115q-98 -137 -227 -244q96 -114 141 -244l-125 -98q-94 216 -264 350z" />
<glyph unicode="&#xac;" horiz-adv-x="1024" d="M78 498l26 149h820l-66 -371h-164l39 222h-655z" />
<glyph unicode="&#xad;" horiz-adv-x="675" d="M78 498l26 149h512l-26 -149h-512z" />
<glyph unicode="&#xae;" horiz-adv-x="983" d="M137 844q0 102 41 193.5t108.5 156t157 102t185.5 37.5q156 0 257 -94.5t101 -245.5q0 -137 -69 -250.5t-181.5 -177t-240.5 -63.5q-157 0 -258 94t-101 248zM223 850q0 -120 77.5 -192t203.5 -72q160 0 280.5 116.5t120.5 278.5q0 120 -80 192t-207 72 q-105 0 -195.5 -51t-145 -142t-54.5 -202zM367 662l92 512h145q62 0 109 -38t47 -98q0 -57 -35 -99t-78 -56l88 -168l-88 -53l-98 206h-45l-37 -206h-100zM516 948h51q34 0 63 22t29 64q0 27 -19 40t-46 13h-53z" />
<glyph unicode="&#xaf;" horiz-adv-x="819" d="M360 1075l27 158h377l-27 -158h-377z" />
<glyph unicode="&#xb0;" horiz-adv-x="509" d="M150 1102q0 95 73.5 166t169.5 71q76 0 131.5 -53t55.5 -127q0 -95 -74 -166t-170 -71q-76 0 -131 53t-55 127zM256 1108q0 -38 24.5 -61t65.5 -23q53 0 90 37.5t37 91.5q0 38 -24.5 61t-65.5 23q-53 0 -90 -37.5t-37 -91.5z" />
<glyph unicode="&#xb1;" horiz-adv-x="1794" d="M68 788l24 140h158l2 12q40 243 177 368.5t343 125.5q83 0 154 -19l-35 -151q-54 14 -129 14q-130 0 -211.5 -79.5t-104.5 -211.5l-10 -59h457l4 22q95 516 619 516q152 0 241 -30l-213 -1205q-4 -24 -4 -32q0 -48 26 -77.5t66 -39.5l-119 -119q-63 12 -110 69.5 t-47 151.5q0 32 6 70l184 1051q-27 6 -63 6q-88 0 -160.5 -28.5t-119 -76.5t-74.5 -103t-39 -116l-11 -59h219l-24 -140h-219l-140 -788h-186l139 788h-456l-140 -788h-186l139 788h-157z" />
<glyph unicode="&#xb2;" horiz-adv-x="759" d="M66 510l6 33q248 181 373.5 324t125.5 227q0 62 -40 95.5t-115 33.5q-93 0 -193 -60l-26 111q41 25 105.5 42t127.5 17q132 0 203.5 -64.5t71.5 -168.5q0 -208 -345 -479h306l-21 -111h-579z" />
<glyph unicode="&#xb3;" horiz-adv-x="638" d="M98 535v127q67 -54 166 -54q76 0 138.5 57t62.5 134q0 49 -34.5 79.5t-94.5 30.5q-13 0 -31 -6l-26 111q74 12 131 53t57 84q0 33 -24.5 52.5t-63.5 19.5q-68 0 -143 -43l-27 110q84 43 186 43q91 0 148 -50t57 -126q0 -49 -38.5 -97.5t-92.5 -70.5q51 -15 90 -64.5 t39 -117.5q0 -126 -95 -217.5t-251 -91.5q-102 0 -154 37z" />
<glyph unicode="&#xb4;" horiz-adv-x="819" d="M332 1153q113 31 232.5 86.5t211.5 128.5l8 -168q-91 -56 -171.5 -86.5t-194.5 -60.5z" />
<glyph unicode="&#xb5;" horiz-adv-x="1126" d="M-12 0l164 928h966l-164 -928h-966zM57 59h387q-70 33 -100 125l-166 555zM248 786l432 -348q-109 -41 -168 -109t-59 -139q0 -82 79 -131h373l129 727h-786z" />
<glyph unicode="&#xb6;" horiz-adv-x="901" d="M133 -369q99 14 174 86.5t96 188.5l117 665h-18q-99 0 -178 32.5t-128 101t-49 163.5q0 105 42.5 192t112 142t156 85t177.5 30h348l-25 -141h-147l-227 -1287q-26 -142 -120 -246.5t-212 -129.5z" />
<glyph unicode="&#xb7;" horiz-adv-x="403" d="M82 547q0 33 56 82t89 49q29 0 67 -43t38 -74q0 -30 -57.5 -80.5t-90.5 -50.5q-29 0 -65.5 42t-36.5 75z" />
<glyph unicode="&#xb8;" horiz-adv-x="819" d="M61 -418l39 101q52 -45 131 -45q43 0 78 32t35 78q0 36 -27.5 61t-64.5 25q-28 0 -66 -6l62 172h78l-21 -63q66 -2 118 -55t52 -130q0 -100 -80 -162.5t-172 -62.5q-90 0 -162 55z" />
<glyph unicode="&#xb9;" horiz-adv-x="550" d="M193 1184l49 123l276 26l-145 -823h-131l120 690z" />
<glyph unicode="&#xba;" horiz-adv-x="935" d="M141 858q0 97 37.5 185.5t100.5 151.5t147.5 100.5t175.5 37.5q136 0 221.5 -81.5t85.5 -223.5q0 -128 -63.5 -237.5t-169.5 -172.5t-227 -63q-137 0 -222.5 81.5t-85.5 221.5zM301 870q0 -178 164 -178q109 0 197 97t88 229q0 91 -42.5 134.5t-119.5 43.5 q-110 0 -198.5 -97t-88.5 -229zM332 303q0 28 50.5 70.5t80.5 42.5q29 0 60.5 -35t31.5 -64q0 -30 -50.5 -72t-80.5 -42q-28 0 -60 35.5t-32 64.5z" />
<glyph unicode="&#xbb;" horiz-adv-x="901" d="M8 332q83 123 228 243q-101 119 -142 244l125 99q86 -205 264 -351q-224 -139 -387 -350zM438 332q82 121 226 243q-101 125 -140 244l125 99q86 -204 262 -351q-223 -140 -385 -350z" />
<glyph unicode="&#xbc;" horiz-adv-x="1521" d="M25 35l1316 1323l84 -84l-1316 -1323zM193 1184l49 123l276 26l-145 -823h-131l120 690zM764 352l469 461h117l-82 -463h108l-18 -110h-109l-43 -240h-131l43 240h-344zM909 350h228l34 193q8 46 23 96l-4 2q-40 -52 -88 -100z" />
<glyph unicode="&#xbd;" horiz-adv-x="1634" d="M25 35l1316 1323l84 -84l-1316 -1323zM193 1184l49 123l276 26l-145 -823h-131l120 690zM866 0l6 33q248 182 374 324.5t126 226.5q0 62 -40 95.5t-115 33.5q-93 0 -193 -60l-27 111q41 25 106 42t128 17q132 0 203 -64.5t71 -168.5q0 -209 -344 -479h305l-20 -111h-580z " />
<glyph unicode="&#xbe;" horiz-adv-x="1576" d="M98 535v127q67 -54 166 -54q76 0 138.5 57t62.5 134q0 49 -34.5 79.5t-94.5 30.5q-13 0 -31 -6l-26 111q74 12 131 53t57 84q0 33 -24.5 52.5t-63.5 19.5q-68 0 -143 -43l-27 110q84 43 186 43q91 0 148 -50t57 -126q0 -49 -38.5 -97.5t-92.5 -70.5q51 -15 90 -64.5 t39 -117.5q0 -126 -95 -217.5t-251 -91.5q-102 0 -154 37zM111 35l1316 1323l84 -84l-1316 -1323zM846 352l469 461h117l-82 -463h108l-18 -110h-109l-43 -240h-131l43 240h-344zM991 350h228l34 193q8 46 23 96l-4 2q-40 -52 -88 -100z" />
<glyph unicode="&#xbf;" horiz-adv-x="802" d="M31 201q0 81 34 153.5t83.5 127.5t142.5 139q126 114 145 241q17 94 17 119l147 -35q3 -56 -6 -108q-15 -93 -64.5 -183.5t-121.5 -154.5q-90 -78 -136.5 -146t-46.5 -143q0 -63 45 -109.5t127 -46.5q128 0 236 95l35 -160q-55 -45 -133 -72t-160 -27q-149 0 -246.5 86.5 t-97.5 223.5zM434 1202q0 30 57.5 80.5t90.5 50.5q29 0 65.5 -42t36.5 -74q0 -33 -56 -82.5t-89 -49.5q-29 0 -67 43t-38 74z" />
<glyph unicode="&#xc0;" horiz-adv-x="1267" d="M-51 0l790 1325h72l324 -1325h-193l-84 348h-500l-206 -348h-203zM449 496h372l-73 319q-18 77 -27 160h-4q-43 -95 -84 -160zM493 1610l68 168q65 -73 163.5 -128.5t200.5 -86.5l-114 -100q-106 30 -177 61t-141 86z" />
<glyph unicode="&#xc1;" horiz-adv-x="1267" d="M-51 0l790 1325h72l324 -1325h-193l-84 348h-500l-206 -348h-203zM449 496h372l-73 319q-18 77 -27 160h-4q-43 -95 -84 -160zM643 1563q113 31 232.5 86.5t211.5 128.5l9 -168q-91 -56 -172.5 -87.5t-194.5 -60.5z" />
<glyph unicode="&#xc2;" horiz-adv-x="1267" d="M-51 0l790 1325h72l324 -1325h-193l-84 348h-500l-206 -348h-203zM449 496h372l-73 319q-18 77 -27 160h-4q-43 -95 -84 -160zM539 1559q158 61 311 231q83 -166 227 -231l-110 -96q-99 50 -150 118q-78 -68 -192 -118z" />
<glyph unicode="&#xc3;" horiz-adv-x="1267" d="M-51 0l790 1325h72l324 -1325h-193l-84 348h-500l-206 -348h-203zM449 496h372l-73 319q-18 77 -27 160h-4q-43 -95 -84 -160zM504 1501l63 148q92 47 155.5 70t139.5 28l8 -129q113 17 248 88l-63 -143q-79 -48 -147 -71.5t-148 -29.5l-10 125q-113 -15 -246 -86z" />
<glyph unicode="&#xc4;" horiz-adv-x="1267" d="M-51 0l790 1325h72l324 -1325h-193l-84 348h-500l-206 -348h-203zM449 496h372l-73 319q-18 77 -27 160h-4q-43 -95 -84 -160zM547 1565q0 28 50.5 70.5t80.5 42.5q29 0 60.5 -35t31.5 -64q0 -30 -50.5 -72t-80.5 -42q-28 0 -60 35.5t-32 64.5zM862 1565q0 28 51 70.5 t80 42.5t60.5 -35t31.5 -64q0 -30 -50 -72t-79 -42q-30 0 -62 35.5t-32 64.5z" />
<glyph unicode="&#xc5;" horiz-adv-x="1267" d="M-51 0l790 1325h72l324 -1325h-193l-84 348h-500l-206 -348h-203zM449 496h372l-73 319q-18 77 -27 160h-4q-43 -95 -84 -160zM588 1642q0 104 81.5 183.5t186.5 79.5q86 0 146.5 -59.5t60.5 -141.5q0 -104 -81.5 -183t-186.5 -79q-86 0 -146.5 59t-60.5 141zM705 1649 q0 -43 27 -69t73 -26q58 0 99.5 42.5t41.5 101.5q0 43 -27 68.5t-73 25.5q-58 0 -99.5 -42t-41.5 -101z" />
<glyph unicode="&#xc6;" horiz-adv-x="1667" d="M-72 0l987 1307h775l-27 -160h-506l-72 -406h424l-28 -159h-424l-74 -422h578l-29 -160h-774l61 348h-428l-264 -348h-199zM494 496h352l76 428q8 50 20.5 116t18.5 99l-5 2q-64 -111 -147 -221z" />
<glyph unicode="&#xc7;" horiz-adv-x="1228" d="M96 565q0 158 60.5 298t169.5 244.5t269.5 165t350.5 60.5q199 0 311 -51l-36 -170q-98 49 -283 49q-142 0 -263.5 -48t-204 -129.5t-129 -189.5t-46.5 -227q0 -128 66.5 -226t168.5 -146t218 -48q175 0 337 86l-43 -194q-133 -62 -317 -64l-12 -38q66 -2 118 -55 t52 -130q0 -100 -80 -162.5t-172 -62.5q-90 0 -162 55l39 101q52 -45 131 -45q43 0 78 32t35 78q0 36 -28 61t-65 25q-27 0 -65 -6l53 149q-103 10 -199.5 52t-176 113.5t-127.5 181t-48 241.5z" />
<glyph unicode="&#xc8;" horiz-adv-x="952" d="M41 0l229 1307h705l-27 -160h-506l-71 -406h424l-29 -159h-424l-74 -422h578l-29 -160h-776zM362 1610l68 168q65 -73 164 -128.5t201 -86.5l-115 -101q-105 30 -176 61.5t-142 86.5z" />
<glyph unicode="&#xc9;" horiz-adv-x="952" d="M41 0l229 1307h705l-27 -160h-506l-71 -406h424l-29 -159h-424l-74 -422h578l-29 -160h-776zM520 1563q113 31 232.5 86.5t211.5 128.5l8 -168q-91 -56 -171.5 -86.5t-194.5 -60.5z" />
<glyph unicode="&#xca;" horiz-adv-x="952" d="M41 0l229 1307h705l-27 -160h-506l-71 -406h424l-29 -159h-424l-74 -422h578l-29 -160h-776zM406 1559q158 61 311 231q83 -166 227 -231l-110 -97q-98 50 -150 119q-81 -70 -192 -119z" />
<glyph unicode="&#xcb;" horiz-adv-x="952" d="M41 0l229 1307h705l-27 -160h-506l-71 -406h424l-29 -159h-424l-74 -422h578l-29 -160h-776zM404 1565q0 28 50.5 70.5t80.5 42.5q29 0 60.5 -35t31.5 -64q0 -30 -50.5 -72t-80.5 -42q-28 0 -60 35.5t-32 64.5zM719 1565q0 28 51 70.5t80 42.5t60.5 -35t31.5 -64 q0 -30 -50 -72t-79 -42q-30 0 -62 35.5t-32 64.5z" />
<glyph unicode="&#xcc;" horiz-adv-x="526" d="M72 0l229 1307h199l-230 -1307h-198zM172 1610l68 168q65 -73 163.5 -128.5t200.5 -86.5l-115 -101q-104 30 -175 61t-142 87z" />
<glyph unicode="&#xcd;" horiz-adv-x="526" d="M72 0l229 1307h199l-230 -1307h-198zM250 1563q113 31 232.5 86.5t211.5 128.5l8 -168q-91 -56 -171.5 -86.5t-194.5 -60.5z" />
<glyph unicode="&#xce;" horiz-adv-x="526" d="M72 0l229 1307h199l-230 -1307h-198zM166 1559q158 61 311 231q38 -77 97 -137.5t131 -93.5l-111 -97q-98 50 -150 119q-81 -70 -192 -119z" />
<glyph unicode="&#xcf;" horiz-adv-x="526" d="M72 0l229 1307h199l-230 -1307h-198zM174 1565q0 28 50.5 70t80.5 42q29 0 60.5 -35t31.5 -63q0 -30 -50.5 -72.5t-80.5 -42.5q-28 0 -60 36t-32 65zM489 1565q0 28 51.5 70t80.5 42t60.5 -35t31.5 -63q0 -30 -50 -72.5t-79 -42.5q-30 0 -62.5 36t-32.5 65z" />
<glyph unicode="&#xd0;" horiz-adv-x="1323" d="M6 592l27 149h160l98 566h377q279 0 453.5 -148.5t174.5 -400.5q0 -156 -61.5 -295.5t-170 -241.5t-264.5 -161.5t-337 -59.5h-402l105 592h-160zM287 168h170q140 0 259.5 46t201.5 125.5t128 188t46 230.5q0 126 -62 213.5t-164.5 127.5t-236.5 40h-170l-70 -398h258 l-57 -149h-228z" />
<glyph unicode="&#xd1;" horiz-adv-x="1437" d="M41 0l229 1307h138l454 -625q124 -170 219 -317l4 2q12 98 48 311l110 629h199l-234 -1336h-59l-498 680q-33 45 -72.5 102.5t-93 137t-71.5 106.5l-4 -2q-18 -139 -54 -333l-116 -662h-199zM588 1502l64 147q92 47 155.5 70t139.5 28l8 -129q113 17 248 88l-64 -143 q-79 -48 -146.5 -71t-148.5 -29l-10 125q-113 -15 -246 -86z" />
<glyph unicode="&#xd2;" d="M96 551q0 137 44.5 261t122.5 217.5t179 163t217.5 105t235.5 35.5t227 -39.5t192 -111.5t133.5 -182.5t49.5 -243.5q0 -137 -44.5 -261t-122.5 -217t-179 -162.5t-217.5 -105t-235.5 -35.5t-227 39.5t-192 111t-133.5 182t-49.5 243.5zM297 551q0 -123 59 -217 t152 -140.5t201 -46.5q84 0 168.5 28t159.5 82t133 126.5t92 169.5t34 203q0 125 -59 219t-150.5 140t-199.5 46q-106 0 -211.5 -45t-189.5 -122.5t-136.5 -194t-52.5 -248.5zM637 1610l68 168q65 -73 163.5 -128.5t200.5 -86.5l-115 -101q-104 30 -175 61t-142 87z" />
<glyph unicode="&#xd3;" d="M96 551q0 137 44.5 261t122.5 217.5t179 163t217.5 105t235.5 35.5t227 -39.5t192 -111.5t133.5 -182.5t49.5 -243.5q0 -137 -44.5 -261t-122.5 -217t-179 -162.5t-217.5 -105t-235.5 -35.5t-227 39.5t-192 111t-133.5 182t-49.5 243.5zM297 551q0 -123 59 -217 t152 -140.5t201 -46.5q84 0 168.5 28t159.5 82t133 126.5t92 169.5t34 203q0 125 -59 219t-150.5 140t-199.5 46q-106 0 -211.5 -45t-189.5 -122.5t-136.5 -194t-52.5 -248.5zM772 1563q113 31 233 86.5t212 128.5l8 -168q-91 -56 -172.5 -87.5t-194.5 -60.5z" />
<glyph unicode="&#xd4;" d="M96 551q0 137 44.5 261t122.5 217.5t179 163t217.5 105t235.5 35.5t227 -39.5t192 -111.5t133.5 -182.5t49.5 -243.5q0 -137 -44.5 -261t-122.5 -217t-179 -162.5t-217.5 -105t-235.5 -35.5t-227 39.5t-192 111t-133.5 182t-49.5 243.5zM297 551q0 -123 59 -217 t152 -140.5t201 -46.5q84 0 168.5 28t159.5 82t133 126.5t92 169.5t34 203q0 125 -59 219t-150.5 140t-199.5 46q-106 0 -211.5 -45t-189.5 -122.5t-136.5 -194t-52.5 -248.5zM655 1559q160 61 312 231q83 -166 227 -231l-111 -97q-96 49 -149 119q-80 -69 -193 -119z" />
<glyph unicode="&#xd5;" d="M96 551q0 137 44.5 261t122.5 217.5t179 163t217.5 105t235.5 35.5t227 -39.5t192 -111.5t133.5 -182.5t49.5 -243.5q0 -137 -44.5 -261t-122.5 -217t-179 -162.5t-217.5 -105t-235.5 -35.5t-227 39.5t-192 111t-133.5 182t-49.5 243.5zM297 551q0 -123 59 -217 t152 -140.5t201 -46.5q84 0 168.5 28t159.5 82t133 126.5t92 169.5t34 203q0 125 -59 219t-150.5 140t-199.5 46q-106 0 -211.5 -45t-189.5 -122.5t-136.5 -194t-52.5 -248.5zM641 1502l64 147q92 47 155.5 70t139.5 28l8 -129q113 17 248 88l-64 -143q-79 -48 -146.5 -71 t-148.5 -29l-10 125q-113 -15 -246 -86z" />
<glyph unicode="&#xd6;" d="M96 551q0 137 44.5 261t122.5 217.5t179 163t217.5 105t235.5 35.5t227 -39.5t192 -111.5t133.5 -182.5t49.5 -243.5q0 -137 -44.5 -261t-122.5 -217t-179 -162.5t-217.5 -105t-235.5 -35.5t-227 39.5t-192 111t-133.5 182t-49.5 243.5zM297 551q0 -123 59 -217 t152 -140.5t201 -46.5q84 0 168.5 28t159.5 82t133 126.5t92 169.5t34 203q0 125 -59 219t-150.5 140t-199.5 46q-106 0 -211.5 -45t-189.5 -122.5t-136.5 -194t-52.5 -248.5zM662 1565q0 28 50.5 70.5t80.5 42.5q29 0 60.5 -35t31.5 -64q0 -30 -50.5 -72t-80.5 -42 q-28 0 -60 35.5t-32 64.5zM977 1565q0 28 51 70.5t80 42.5t60.5 -35t31.5 -64q0 -30 -50 -72t-79 -42q-30 0 -62 35.5t-32 64.5z" />
<glyph unicode="&#xd7;" horiz-adv-x="958" d="M115 313l286 244l-198 242l98 84l201 -242l286 246l76 -92l-286 -246l194 -240l-96 -82l-197 236l-286 -240z" />
<glyph unicode="&#xd8;" d="M80 18l153 154q-137 150 -137 379q0 137 44.5 261t122.5 217.5t179 163t217.5 105t235.5 35.5q218 0 377 -119l158 158l83 -86l-151 -153q135 -151 135 -377q0 -137 -44.5 -261t-122.5 -217t-179 -162.5t-217.5 -105t-235.5 -35.5q-214 0 -374 117l-158 -158zM297 551 q0 -133 74 -242l768 772q-109 80 -252 80q-106 0 -211.5 -45t-189.5 -122.5t-136.5 -194t-52.5 -248.5zM457 225q110 -78 252 -78q84 0 168.5 28t159.5 82t133 126.5t92 169.5t34 203q0 140 -71 239z" />
<glyph unicode="&#xd9;" horiz-adv-x="1331" d="M115 377q0 51 8 92l147 838h199l-147 -834q-9 -46 -9 -80q0 -113 72 -177t211 -64q166 0 270 89t131 240l146 826h192l-149 -846q-42 -236 -204 -361t-398 -125q-203 0 -336 108.5t-133 293.5zM535 1610l67 168q65 -73 164 -128.5t201 -86.5l-115 -101q-104 30 -175 61 t-142 87z" />
<glyph unicode="&#xda;" horiz-adv-x="1331" d="M115 377q0 51 8 92l147 838h199l-147 -834q-9 -46 -9 -80q0 -113 72 -177t211 -64q166 0 270 89t131 240l146 826h192l-149 -846q-42 -236 -204 -361t-398 -125q-203 0 -336 108.5t-133 293.5zM703 1563q113 31 232.5 86.5t211.5 128.5l8 -168q-91 -56 -171.5 -86.5 t-194.5 -60.5z" />
<glyph unicode="&#xdb;" horiz-adv-x="1331" d="M115 377q0 51 8 92l147 838h199l-147 -834q-9 -46 -9 -80q0 -113 72 -177t211 -64q166 0 270 89t131 240l146 826h192l-149 -846q-42 -236 -204 -361t-398 -125q-203 0 -336 108.5t-133 293.5zM563 1559q158 61 311 231q38 -77 97 -137.5t131 -93.5l-111 -97 q-96 49 -149 119q-80 -69 -193 -119z" />
<glyph unicode="&#xdc;" horiz-adv-x="1331" d="M115 377q0 51 8 92l147 838h199l-147 -834q-9 -46 -9 -80q0 -113 72 -177t211 -64q166 0 270 89t131 240l146 826h192l-149 -846q-42 -236 -204 -361t-398 -125q-203 0 -336 108.5t-133 293.5zM586 1565q0 28 50.5 70t80.5 42q29 0 60.5 -35t31.5 -63q0 -30 -50.5 -72.5 t-80.5 -42.5q-28 0 -60 36t-32 65zM901 1565q0 28 51 70t80 42t60.5 -35t31.5 -63q0 -30 -50 -72.5t-79 -42.5q-30 0 -62 36t-32 65z" />
<glyph unicode="&#xdd;" horiz-adv-x="1236" d="M158 1307h207l194 -369q67 -128 94 -184h4q62 75 158 184l326 369h213l-625 -705l-106 -602h-195l107 602zM617 1563q113 31 232.5 86.5t211.5 128.5l8 -168q-91 -56 -171.5 -86.5t-194.5 -60.5z" />
<glyph unicode="&#xde;" horiz-adv-x="956" d="M41 0l229 1307h197l-27 -152h191q141 0 240.5 -91t99.5 -237q0 -121 -65 -215t-169.5 -142t-228.5 -48h-197l-73 -422h-197zM342 590h162q115 0 192.5 69t77.5 168q0 77 -58.5 118.5t-142.5 41.5h-161z" />
<glyph unicode="&#xdf;" horiz-adv-x="1073" d="M41 0l174 995q41 233 171 352t302 119q96 0 169 -30t119 -99t46 -172t-36.5 -200t-80.5 -158q-58 0 -102.5 -6t-85 -21t-62.5 -45t-22 -73q0 -68 80 -97q131 -49 184 -109t53 -155q0 -135 -111.5 -229.5t-293.5 -94.5q-123 0 -211 37l28 160q76 -39 201 -39q87 0 143 42 t56 112q0 67 -80 98q-122 45 -174.5 103.5t-52.5 144.5q0 75 30 135.5t78 97t102 56.5t109 22q27 41 46.5 104.5t19.5 120.5q0 62 -41 101t-121 39q-95 0 -170 -81t-96 -196l-185 -1034h-186z" />
<glyph unicode="&#xe0;" horiz-adv-x="1009" d="M45 283q0 150 58 276t152 206.5t209.5 125.5t235.5 45q161 0 267 -18l-162 -918h-154l21 174l-4 2q-103 -199 -330 -199q-120 0 -206.5 82t-86.5 224zM231 295q0 -82 39 -123t107 -41q98 0 199 108.5t133 280.5l47 258q-28 4 -72 4q-85 0 -167 -37.5t-145.5 -101 t-102 -155t-38.5 -193.5zM469 1208l57 144q56 -63 140 -110t172 -75l-99 -84q-88 24 -148.5 51t-121.5 74z" />
<glyph unicode="&#xe1;" horiz-adv-x="1009" d="M45 283q0 150 58 276t152 206.5t209.5 125.5t235.5 45q161 0 267 -18l-162 -918h-154l21 174l-4 2q-103 -199 -330 -199q-120 0 -206.5 82t-86.5 224zM231 295q0 -82 39 -123t107 -41q98 0 199 108.5t133 280.5l47 258q-28 4 -72 4q-85 0 -167 -37.5t-145.5 -101 t-102 -155t-38.5 -193.5zM545 1167q230 66 377 185l8 -144q-80 -48 -149 -74.5t-165 -50.5z" />
<glyph unicode="&#xe2;" horiz-adv-x="1009" d="M45 283q0 150 58 276t152 206.5t209.5 125.5t235.5 45q161 0 267 -18l-162 -918h-154l21 174l-4 2q-103 -199 -330 -199q-120 0 -206.5 82t-86.5 224zM231 295q0 -82 39 -123t107 -41q98 0 199 108.5t133 280.5l47 258q-28 4 -72 4q-85 0 -167 -37.5t-145.5 -101 t-102 -155t-38.5 -193.5zM432 1165q139 55 264 197q72 -141 195 -197l-94 -82q-44 23 -73.5 45t-53.5 56q-65 -55 -164 -101z" />
<glyph unicode="&#xe3;" horiz-adv-x="1009" d="M45 283q0 150 58 276t152 206.5t209.5 125.5t235.5 45q161 0 267 -18l-162 -918h-154l21 174l-4 2q-103 -199 -330 -199q-120 0 -206.5 82t-86.5 224zM231 295q0 -82 39 -123t107 -41q98 0 199 108.5t133 280.5l47 258q-28 4 -72 4q-85 0 -167 -37.5t-145.5 -101 t-102 -155t-38.5 -193.5zM422 1116l53 125q80 41 133 60.5t117 23.5l8 -111q102 19 211 76l-55 -121q-125 -78 -250 -86l-8 107q-105 -16 -209 -74z" />
<glyph unicode="&#xe4;" horiz-adv-x="1009" d="M45 283q0 150 58 276t152 206.5t209.5 125.5t235.5 45q161 0 267 -18l-162 -918h-154l21 174l-4 2q-103 -199 -330 -199q-120 0 -206.5 82t-86.5 224zM231 295q0 -82 39 -123t107 -41q98 0 199 108.5t133 280.5l47 258q-28 4 -72 4q-85 0 -167 -37.5t-145.5 -101 t-102 -155t-38.5 -193.5zM457 1169q0 25 42 61t68 36q24 0 51 -29.5t27 -54.5t-42 -61t-68 -36q-24 0 -51 30t-27 54zM723 1169q0 25 44 61t69 36q24 0 50.5 -29.5t26.5 -54.5t-42 -61t-66 -36q-26 0 -54 30t-28 54z" />
<glyph unicode="&#xe5;" horiz-adv-x="1009" d="M45 283q0 150 58 276t152 206.5t209.5 125.5t235.5 45q161 0 267 -18l-162 -918h-154l21 174l-4 2q-103 -199 -330 -199q-120 0 -206.5 82t-86.5 224zM231 295q0 -82 39 -123t107 -41q98 0 199 108.5t133 280.5l47 258q-28 4 -72 4q-85 0 -167 -37.5t-145.5 -101 t-102 -155t-38.5 -193.5zM489 1237q0 87 69 154t159 67q73 0 124.5 -50.5t51.5 -119.5q0 -89 -69.5 -156t-157.5 -67q-73 0 -125 51t-52 121zM588 1241q0 -37 23 -58.5t63 -21.5q50 0 85.5 36t35.5 87q0 35 -24 57.5t-62 22.5q-50 0 -85.5 -36t-35.5 -87z" />
<glyph unicode="&#xe6;" horiz-adv-x="1476" d="M41 231q0 90 51.5 163.5t129 114t163.5 48.5l238 23l10 59q2 10 2 33q0 55 -37.5 87t-118.5 32q-136 0 -254 -78l-39 153q131 84 318 84q100 0 177.5 -38t113.5 -109q80 69 177.5 108t192.5 39q126 0 196.5 -62.5t70.5 -164.5q0 -124 -87.5 -217t-233 -140t-327.5 -47 q9 -81 67.5 -129.5t158.5 -48.5q150 0 272 101l-47 -201q-95 -64 -240 -64q-115 0 -205 44t-141 126q-70 -80 -165 -125t-167 -45q-125 0 -200.5 75t-75.5 179zM219 244q0 -46 30.5 -77.5t80.5 -31.5q78 0 158 62.5t94 146.5l14 82l-205 -18q-75 -7 -123.5 -56t-48.5 -108z M793 465q124 0 230 35.5t164 88t58 105.5q0 92 -96 92q-49 0 -104.5 -21.5t-107 -60.5t-91.5 -102t-53 -137z" />
<glyph unicode="&#xe7;" horiz-adv-x="864" d="M55 336q0 131 57.5 247.5t151 195.5t212.5 125t241 46q92 0 147 -16l-33 -154q-45 11 -129 11q-87 0 -171.5 -38t-146.5 -99t-100 -140.5t-38 -159.5q0 -93 58.5 -153t152.5 -60q78 0 155.5 29t132.5 84l-45 -197q-79 -67 -225 -77l-10 -33q55 -2 99 -47.5t44 -110.5 q0 -85 -67.5 -137.5t-145.5 -52.5q-79 0 -139 47l35 84q42 -37 110 -37q37 0 67 27t30 65q0 32 -23 53t-55 21q-12 0 -58 -4l46 122q-64 3 -125 27t-113 66.5t-83.5 111.5t-31.5 154z" />
<glyph unicode="&#xe8;" horiz-adv-x="950" d="M63 373q0 98 34 189t92 160.5t132 121.5t156 79t162 27q126 0 196 -62.5t70 -164.5q0 -124 -87 -217t-232.5 -140t-327.5 -47q9 -81 67 -129.5t158 -48.5q151 0 273 101l-47 -201q-95 -64 -240 -64q-182 0 -294 104.5t-112 291.5zM266 465q124 0 230.5 35.5t164.5 88 t58 105.5q0 92 -96 92q-49 0 -104.5 -21.5t-107.5 -60.5t-92 -102t-53 -137zM414 1208l57 144q107 -120 311 -185l-98 -84q-88 24 -148.5 51t-121.5 74z" />
<glyph unicode="&#xe9;" horiz-adv-x="950" d="M63 373q0 98 34 189t92 160.5t132 121.5t156 79t162 27q126 0 196 -62.5t70 -164.5q0 -124 -87 -217t-232.5 -140t-327.5 -47q9 -81 67 -129.5t158 -48.5q151 0 273 101l-47 -201q-95 -64 -240 -64q-182 0 -294 104.5t-112 291.5zM266 465q124 0 230.5 35.5t164.5 88 t58 105.5q0 92 -96 92q-49 0 -104.5 -21.5t-107.5 -60.5t-92 -102t-53 -137zM518 1167q230 66 377 185l8 -144q-80 -48 -149 -74.5t-164 -50.5z" />
<glyph unicode="&#xea;" horiz-adv-x="950" d="M63 373q0 98 34 189t92 160.5t132 121.5t156 79t162 27q126 0 196 -62.5t70 -164.5q0 -124 -87 -217t-232.5 -140t-327.5 -47q9 -81 67 -129.5t158 -48.5q151 0 273 101l-47 -201q-95 -64 -240 -64q-182 0 -294 104.5t-112 291.5zM266 465q124 0 230.5 35.5t164.5 88 t58 105.5q0 92 -96 92q-49 0 -104.5 -21.5t-107.5 -60.5t-92 -102t-53 -137zM393 1165q139 55 264 197q72 -141 195 -197l-94 -82q-44 23 -73.5 45t-53.5 56q-65 -55 -164 -101z" />
<glyph unicode="&#xeb;" horiz-adv-x="950" d="M63 373q0 98 34 189t92 160.5t132 121.5t156 79t162 27q126 0 196 -62.5t70 -164.5q0 -124 -87 -217t-232.5 -140t-327.5 -47q9 -81 67 -129.5t158 -48.5q151 0 273 101l-47 -201q-95 -64 -240 -64q-182 0 -294 104.5t-112 291.5zM266 465q124 0 230.5 35.5t164.5 88 t58 105.5q0 92 -96 92q-49 0 -104.5 -21.5t-107.5 -60.5t-92 -102t-53 -137zM401 1169q0 25 42.5 61t68.5 36q24 0 51 -29.5t27 -54.5t-42.5 -61t-68.5 -36q-24 0 -51 30t-27 54zM668 1169q0 25 43.5 61t68.5 36q24 0 51 -29.5t27 -54.5t-42 -61t-66 -36q-26 0 -54 30 t-28 54z" />
<glyph unicode="&#xec;" horiz-adv-x="495" d="M61 0l164 928h189l-164 -928h-189zM104 1208l58 144q107 -120 311 -185l-98 -84q-88 25 -149 51.5t-122 73.5z" />
<glyph unicode="&#xed;" horiz-adv-x="495" d="M61 0l164 928h189l-164 -928h-189zM211 1167q230 66 377 185l8 -144q-80 -48 -149 -74.5t-164 -50.5z" />
<glyph unicode="&#xee;" horiz-adv-x="495" d="M61 0l164 928h189l-164 -928h-189zM123 1165q139 55 264 197q72 -141 195 -197l-95 -82q-44 23 -73.5 45t-53.5 56q-66 -56 -163 -101z" />
<glyph unicode="&#xef;" horiz-adv-x="495" d="M61 0l164 928h189l-164 -928h-189zM137 1169q0 25 42.5 61t68.5 36q24 0 51 -29.5t27 -54.5t-42.5 -61t-68.5 -36q-24 0 -51 30t-27 54zM403 1169q0 25 44 61t69 36q24 0 51 -29.5t27 -54.5t-42 -61t-67 -36q-26 0 -54 30t-28 54z" />
<glyph unicode="&#xf0;" horiz-adv-x="1021" d="M43 342q0 172 105.5 298t291.5 185q88 29 215 37q-29 99 -106 240l-160 -82l-67 133l151 78q-66 106 -162 227h211q59 -69 109 -147l164 84l67 -133l-151 -78q97 -170 156 -348.5t59 -327.5q0 -241 -142.5 -386t-365.5 -145q-165 0 -270 105t-105 260zM233 350 q0 -93 52.5 -151t142.5 -58q134 0 223.5 106.5t89.5 262.5q0 97 -39 190q-108 -4 -196 -30q-126 -38 -199.5 -124t-73.5 -196z" />
<glyph unicode="&#xf1;" horiz-adv-x="1026" d="M20 0l164 928h154l-21 -174l5 -2q45 65 89.5 105.5t112 66.5t154.5 26q103 0 182.5 -71t79.5 -181q0 -15 -4 -47l-115 -651h-186l115 655q2 10 2 29q0 48 -28 80.5t-81 32.5q-57 0 -111 -24t-107 -75.5t-95.5 -147t-65.5 -224.5l-57 -326h-187zM375 1116l53 125 q80 41 133 60.5t117 23.5l8 -111q102 19 211 76l-55 -121q-125 -78 -250 -86l-8 107q-105 -16 -209 -74z" />
<glyph unicode="&#xf2;" horiz-adv-x="1079" d="M53 356q0 161 79 298.5t210.5 216.5t282.5 79q169 0 274 -102t105 -279q0 -161 -79 -298t-210.5 -215.5t-282.5 -78.5q-169 0 -274 101t-105 278zM244 375q0 -116 55 -175t154 -59q89 0 172.5 55.5t136.5 152t53 204.5q0 114 -55.5 173.5t-153.5 59.5q-90 0 -173.5 -56 t-136 -152t-52.5 -203zM416 1208l57 144q107 -120 311 -185l-98 -84q-88 24 -148.5 51t-121.5 74z" />
<glyph unicode="&#xf3;" horiz-adv-x="1079" d="M53 356q0 161 79 298.5t210.5 216.5t282.5 79q169 0 274 -102t105 -279q0 -161 -79 -298t-210.5 -215.5t-282.5 -78.5q-169 0 -274 101t-105 278zM244 375q0 -116 55 -175t154 -59q89 0 172.5 55.5t136.5 152t53 204.5q0 114 -55.5 173.5t-153.5 59.5q-90 0 -173.5 -56 t-136 -152t-52.5 -203zM532 1167q230 66 377 185l9 -144q-80 -48 -149 -74.5t-165 -50.5z" />
<glyph unicode="&#xf4;" horiz-adv-x="1079" d="M53 356q0 161 79 298.5t210.5 216.5t282.5 79q169 0 274 -102t105 -279q0 -161 -79 -298t-210.5 -215.5t-282.5 -78.5q-169 0 -274 101t-105 278zM244 375q0 -116 55 -175t154 -59q89 0 172.5 55.5t136.5 152t53 204.5q0 114 -55.5 173.5t-153.5 59.5q-90 0 -173.5 -56 t-136 -152t-52.5 -203zM432 1165q139 55 264 197q72 -141 195 -197l-94 -82q-44 23 -73.5 45t-53.5 56q-65 -55 -164 -101z" />
<glyph unicode="&#xf5;" horiz-adv-x="1079" d="M53 356q0 161 79 298.5t210.5 216.5t282.5 79q169 0 274 -102t105 -279q0 -161 -79 -298t-210.5 -215.5t-282.5 -78.5q-169 0 -274 101t-105 278zM244 375q0 -116 55 -175t154 -59q89 0 172.5 55.5t136.5 152t53 204.5q0 114 -55.5 173.5t-153.5 59.5q-90 0 -173.5 -56 t-136 -152t-52.5 -203zM434 1116l53 125q80 41 133 60.5t117 23.5l8 -111q102 19 211 76l-55 -121q-125 -78 -250 -86l-8 107q-105 -16 -209 -74z" />
<glyph unicode="&#xf6;" horiz-adv-x="1079" d="M53 356q0 161 79 298.5t210.5 216.5t282.5 79q169 0 274 -102t105 -279q0 -161 -79 -298t-210.5 -215.5t-282.5 -78.5q-169 0 -274 101t-105 278zM244 375q0 -116 55 -175t154 -59q89 0 172.5 55.5t136.5 152t53 204.5q0 114 -55.5 173.5t-153.5 59.5q-90 0 -173.5 -56 t-136 -152t-52.5 -203zM446 1169q0 25 42.5 61t68.5 36q24 0 51 -29.5t27 -54.5t-42.5 -61t-68.5 -36q-24 0 -51 30t-27 54zM713 1169q0 25 43.5 61t68.5 36q24 0 51 -29.5t27 -54.5t-42 -61t-66 -36q-26 0 -54 30t-28 54z" />
<glyph unicode="&#xf7;" horiz-adv-x="929" d="M78 498l26 149h766l-26 -149h-766zM317 315q0 28 51 70.5t81 42.5q29 0 60.5 -35t31.5 -63q0 -30 -50.5 -72.5t-80.5 -42.5q-29 0 -61 35.5t-32 64.5zM406 819q0 28 50.5 70.5t80.5 42.5q29 0 60.5 -35t31.5 -63q0 -30 -50.5 -72.5t-80.5 -42.5q-28 0 -60 35.5t-32 64.5z " />
<glyph unicode="&#xf8;" horiz-adv-x="1079" d="M6 12l113 113q-66 98 -66 231q0 161 79 298.5t210.5 216.5t282.5 79q145 0 239 -73l115 116l80 -78l-119 -118q64 -92 64 -228q0 -161 -79 -298t-210.5 -215.5t-282.5 -78.5q-135 0 -235 68l-111 -111zM244 375q0 -57 16 -107l477 480q-49 38 -131 38q-90 0 -173.5 -56 t-136 -152t-52.5 -203zM326 176q50 -35 127 -35q89 0 172.5 55.5t136.5 152t53 204.5q0 61 -14 102z" />
<glyph unicode="&#xf9;" horiz-adv-x="1026" d="M66 229q0 15 4 47l114 652h187l-115 -656q-2 -10 -2 -28q0 -48 27.5 -80.5t80.5 -32.5q57 0 111 24t107 75.5t95.5 147t65.5 224.5l58 326h186l-164 -928h-153l20 174l-4 2q-68 -99 -149 -149t-207 -50q-103 0 -182.5 71t-79.5 181zM358 1208l58 144q107 -120 311 -185 l-98 -84q-88 25 -149 51.5t-122 73.5z" />
<glyph unicode="&#xfa;" horiz-adv-x="1026" d="M66 229q0 15 4 47l114 652h187l-115 -656q-2 -10 -2 -28q0 -48 27.5 -80.5t80.5 -32.5q57 0 111 24t107 75.5t95.5 147t65.5 224.5l58 326h186l-164 -928h-153l20 174l-4 2q-68 -99 -149 -149t-207 -50q-103 0 -182.5 71t-79.5 181zM516 1167q230 66 377 185l8 -144 q-80 -48 -149 -74.5t-164 -50.5z" />
<glyph unicode="&#xfb;" horiz-adv-x="1026" d="M66 229q0 15 4 47l114 652h187l-115 -656q-2 -10 -2 -28q0 -48 27.5 -80.5t80.5 -32.5q57 0 111 24t107 75.5t95.5 147t65.5 224.5l58 326h186l-164 -928h-153l20 174l-4 2q-68 -99 -149 -149t-207 -50q-103 0 -182.5 71t-79.5 181zM401 1165q141 56 265 197 q73 -142 194 -197l-94 -82q-44 23 -73.5 45t-53.5 56q-65 -55 -164 -101z" />
<glyph unicode="&#xfc;" horiz-adv-x="1026" d="M66 229q0 15 4 47l114 652h187l-115 -656q-2 -10 -2 -28q0 -48 27.5 -80.5t80.5 -32.5q57 0 111 24t107 75.5t95.5 147t65.5 224.5l58 326h186l-164 -928h-153l20 174l-4 2q-68 -99 -149 -149t-207 -50q-103 0 -182.5 71t-79.5 181zM408 1169q0 25 42 61t68 36 q24 0 51 -29.5t27 -54.5t-42.5 -61t-68.5 -36q-24 0 -50.5 30t-26.5 54zM674 1169q0 25 43.5 61t68.5 36q24 0 51 -29.5t27 -54.5t-42 -61t-66 -36q-26 0 -54 30t-28 54z" />
<glyph unicode="&#xfd;" horiz-adv-x="1013" d="M-94 -371q216 92 420 430l-203 869h190l101 -432q22 -95 43 -207h4q31 57 123 211l250 428h200l-489 -838q-268 -458 -527 -573zM494 1167q229 66 376 185l9 -144q-80 -48 -149 -74.5t-165 -50.5z" />
<glyph unicode="&#xfe;" horiz-adv-x="1058" d="M-53 -473l342 1931h186l-117 -655l4 -2q94 149 322 149q120 0 208.5 -95.5t88.5 -256.5q0 -135 -53.5 -253.5t-140.5 -197.5t-197.5 -124.5t-224.5 -45.5q-71 0 -148 17l-84 -467h-186zM248 170q49 -29 135 -29q79 0 153.5 34.5t131.5 93.5t91 144t34 181q0 92 -46 142 t-124 50q-101 0 -202 -108.5t-132 -280.5z" />
<glyph unicode="&#xff;" horiz-adv-x="1013" d="M-94 -371q216 92 420 430l-203 869h190l101 -432q22 -95 43 -207h4q31 57 123 211l250 428h200l-489 -838q-268 -458 -527 -573zM381 1163q0 24 43 60.5t70 36.5q24 0 50.5 -30t26.5 -54q0 -26 -42.5 -62.5t-69.5 -36.5q-24 0 -51 31t-27 55zM649 1163q0 24 43.5 60.5 t69.5 36.5q24 0 51 -30t27 -54q0 -25 -42.5 -62t-68.5 -37q-25 0 -52.5 31t-27.5 55z" />
<glyph unicode="&#x152;" horiz-adv-x="1951" d="M96 551q0 137 44.5 261t122.5 217.5t179 163t217.5 105t235.5 35.5q209 0 362 -108l15 82h702l-26 -160h-506l-72 -406h424l-29 -159h-424l-73 -422h577l-28 -160h-775l11 57q-172 -82 -355 -82q-119 0 -227 39.5t-192 111t-133.5 182t-49.5 243.5zM297 551 q0 -123 59 -217t152 -140.5t201 -46.5q101 0 202 41t185 115l123 701q-58 75 -146 116t-186 41q-106 0 -211.5 -45t-189.5 -122.5t-136.5 -194t-52.5 -248.5z" />
<glyph unicode="&#x153;" horiz-adv-x="1681" d="M53 356q0 161 79 298.5t210.5 216.5t282.5 79q114 0 200.5 -47.5t132.5 -136.5q86 86 195.5 135t216.5 49q126 0 196 -62.5t70 -164.5q0 -124 -87 -217t-232.5 -140t-327.5 -47q9 -81 67 -129.5t158 -48.5q151 0 273 101l-47 -201q-95 -64 -240 -64q-121 0 -213 47.5 t-143 137.5q-79 -87 -187 -136t-225 -49q-169 0 -274 101t-105 278zM244 375q0 -116 55 -175t154 -59q89 0 172.5 55.5t136.5 152t53 204.5q0 114 -55.5 173.5t-153.5 59.5q-90 0 -173.5 -56t-136 -152t-52.5 -203zM997 465q124 0 230.5 35.5t164.5 88t58 105.5q0 92 -96 92 q-49 0 -104.5 -21.5t-107.5 -60.5t-92 -102t-53 -137z" />
<glyph unicode="&#x178;" horiz-adv-x="1236" d="M158 1307h207l194 -369q67 -128 94 -184h4q62 75 158 184l326 369h213l-625 -705l-106 -602h-195l107 602zM510 1565q0 28 50.5 70.5t80.5 42.5q29 0 60.5 -35t31.5 -64q0 -30 -50.5 -72t-80.5 -42q-28 0 -60 35.5t-32 64.5zM825 1565q0 28 51 70.5t80 42.5t60.5 -35 t31.5 -64q0 -30 -50 -72t-79 -42q-30 0 -62 35.5t-32 64.5z" />
<glyph unicode="&#x2c6;" horiz-adv-x="819" d="M287 1149q158 61 311 231q83 -166 227 -231l-110 -96q-99 50 -150 118q-78 -68 -192 -118z" />
<glyph unicode="&#x2dc;" horiz-adv-x="819" d="M264 1092l64 147q92 47 155.5 70t139.5 28l8 -129q113 17 248 88l-64 -143q-79 -48 -146.5 -71t-148.5 -29l-10 125q-113 -15 -246 -86z" />
<glyph unicode="&#x2000;" horiz-adv-x="952" />
<glyph unicode="&#x2001;" horiz-adv-x="1905" />
<glyph unicode="&#x2002;" horiz-adv-x="952" />
<glyph unicode="&#x2003;" horiz-adv-x="1905" />
<glyph unicode="&#x2004;" horiz-adv-x="635" />
<glyph unicode="&#x2005;" horiz-adv-x="476" />
<glyph unicode="&#x2006;" horiz-adv-x="317" />
<glyph unicode="&#x2007;" horiz-adv-x="317" />
<glyph unicode="&#x2008;" horiz-adv-x="238" />
<glyph unicode="&#x2009;" horiz-adv-x="381" />
<glyph unicode="&#x200a;" horiz-adv-x="105" />
<glyph unicode="&#x2010;" horiz-adv-x="675" d="M78 498l26 149h512l-26 -149h-512z" />
<glyph unicode="&#x2011;" horiz-adv-x="675" d="M78 498l26 149h512l-26 -149h-512z" />
<glyph unicode="&#x2012;" horiz-adv-x="675" d="M78 498l26 149h512l-26 -149h-512z" />
<glyph unicode="&#x2013;" horiz-adv-x="1187" d="M78 498l26 149h1024l-26 -149h-1024z" />
<glyph unicode="&#x2014;" horiz-adv-x="1699" d="M78 498l26 149h1536l-26 -149h-1536z" />
<glyph unicode="&#x2018;" horiz-adv-x="403" d="M172 1079q0 54 94 181t183 198l69 -12q-68 -73 -116.5 -143t-61.5 -117q25 -5 53.5 -36.5t28.5 -55.5q0 -32 -57.5 -80.5t-88.5 -48.5q-26 0 -65 40t-39 74z" />
<glyph unicode="&#x2019;" horiz-adv-x="403" d="M123 987q67 70 115.5 141.5t62.5 118.5q-25 3 -53.5 34.5t-28.5 57.5q0 32 57.5 80.5t88.5 48.5q26 0 65 -41t39 -75q0 -54 -93.5 -180t-182.5 -197z" />
<glyph unicode="&#x201a;" horiz-adv-x="403" d="M-94 -256q67 70 115.5 141.5t62.5 118.5q-25 3 -53.5 34.5t-28.5 57.5q0 32 57 80.5t88 48.5q26 0 65.5 -41t39.5 -75q0 -54 -94 -180t-183 -197z" />
<glyph unicode="&#x201c;" horiz-adv-x="755" d="M172 1079q0 54 94 181t183 198l69 -12q-68 -73 -116.5 -143t-61.5 -117q25 -5 53.5 -36.5t28.5 -55.5q0 -32 -57.5 -80.5t-88.5 -48.5q-26 0 -65 40t-39 74zM524 1081q0 54 94 180t183 197l69 -12q-67 -70 -115.5 -141.5t-62.5 -118.5q25 -3 53.5 -34.5t28.5 -57.5 q0 -32 -57 -80.5t-88 -48.5q-26 0 -65.5 41t-39.5 75z" />
<glyph unicode="&#x201d;" horiz-adv-x="755" d="M123 987q67 70 115.5 141.5t62.5 118.5q-25 3 -53.5 34.5t-28.5 57.5q0 32 57.5 80.5t88.5 48.5q26 0 65 -41t39 -75q0 -54 -93.5 -180t-182.5 -197zM475 987q68 73 116.5 143t61.5 117q-25 5 -53.5 36.5t-28.5 55.5q0 32 57.5 80.5t88.5 48.5q26 0 65 -40t39 -74 q0 -54 -93.5 -181t-182.5 -198z" />
<glyph unicode="&#x201e;" horiz-adv-x="755" d="M-94 -256q67 70 115.5 141.5t62.5 118.5q-25 3 -53.5 34.5t-28.5 57.5q0 32 57 80.5t88 48.5q26 0 65.5 -41t39.5 -75q0 -54 -94 -180t-183 -197zM258 -256q67 70 115.5 141.5t62.5 118.5q-25 3 -53.5 34.5t-28.5 57.5q0 32 57.5 80.5t88.5 48.5q26 0 65 -41t39 -75 q0 -54 -93.5 -180t-182.5 -197z" />
<glyph unicode="&#x2022;" horiz-adv-x="778" d="M106 502q0 151 105 257.5t246 106.5q103 0 167 -62.5t64 -170.5q0 -151 -104 -257t-246 -106q-103 0 -167.5 62.5t-64.5 169.5z" />
<glyph unicode="&#x2026;" horiz-adv-x="1124" d="M2 94q0 33 56 82t89 49q29 0 67 -42.5t38 -73.5q0 -30 -57.5 -81t-90.5 -51q-29 0 -65.5 42t-36.5 75zM362 94q0 33 56.5 82t89.5 49q29 0 66.5 -42.5t37.5 -73.5q0 -30 -57 -81t-90 -51q-29 0 -66 42.5t-37 74.5zM723 94q0 33 56 82t89 49q29 0 67 -42.5t38 -73.5 q0 -30 -57.5 -81t-90.5 -51q-29 0 -65.5 42t-36.5 75z" />
<glyph unicode="&#x202f;" horiz-adv-x="381" />
<glyph unicode="&#x2039;" horiz-adv-x="473" d="M6 567q226 145 387 351l88 -115q-95 -133 -229 -244q99 -118 143 -244l-125 -98q-94 216 -264 350z" />
<glyph unicode="&#x203a;" horiz-adv-x="473" d="M8 330q83 123 228 243q-101 119 -142 244l125 101q86 -205 264 -351q-224 -139 -387 -350z" />
<glyph unicode="&#x205f;" horiz-adv-x="476" />
<glyph unicode="&#x2122;" horiz-adv-x="851" d="M166 1241l12 66h289l-12 -66h-109l-55 -313h-72l55 313h-108zM426 928l96 379h47l82 -271l185 271h49l-35 -379h-72l29 235l-160 -235h-26l-70 231l-57 -231h-68z" />
<glyph unicode="&#x25fc;" horiz-adv-x="931" d="M0 0v932h932v-932h-932z" />
</font>
</defs>
</svg>
