<?xml version="1.0" standalone="no"?>
<!DOCTYPE svg PUBLIC "-//W3C//DTD SVG 1.1//EN" "http://www.w3.org/Graphics/SVG/1.1/DTD/svg11.dtd" >
<svg xmlns="http://www.w3.org/2000/svg" xmlns:xlink="http://www.w3.org/1999/xlink" version="1.1">
<metadata></metadata>
<defs>
<font id="agendamedium" horiz-adv-x="1548" >
<font-face units-per-em="2048" ascent="1638" descent="-410" />
<missing-glyph horiz-adv-x="471" />
<glyph horiz-adv-x="0" />
<glyph horiz-adv-x="682" />
<glyph unicode=" "  horiz-adv-x="471" />
<glyph unicode="&#x09;" horiz-adv-x="471" />
<glyph unicode="&#xa0;" horiz-adv-x="471" />
<glyph unicode="!" horiz-adv-x="546" d="M156 102q0 29 47 76t78 47t78 -47t47 -76q0 -31 -47 -78t-78 -47t-78 47t-47 78zM164 1397h219l-33 -1063l-153 35z" />
<glyph unicode="&#x22;" horiz-adv-x="641" d="M80 1458h166l-37 -469h-98zM395 1458h166l-35 -469h-98z" />
<glyph unicode="#" horiz-adv-x="882" d="M55 412v118h127l58 246h-134v119h162l94 412h134l-95 -412h195l94 412h133l-94 -412h96v-119h-125l-57 -246h131v-118h-160l-94 -412h-133l94 412h-194l-94 -412h-134l95 412h-99zM315 530h195l57 246h-194z" />
<glyph unicode="$" horiz-adv-x="958" d="M80 76l41 170q145 -107 307 -107q117 0 186.5 60.5t69.5 148.5q0 77 -60.5 139.5t-174.5 102.5q-170 61 -266.5 158.5t-96.5 224.5q0 136 83.5 232t231.5 122v182h117v-176q155 -8 266 -71l-36 -160q-125 69 -261 69q-98 0 -158.5 -53.5t-60.5 -128.5q0 -126 217 -209 q383 -146 383 -415q0 -148 -90 -255t-260 -128v-181h-117v174q-180 8 -321 101z" />
<glyph unicode="%" horiz-adv-x="1425" d="M74 1040q0 128 83 210.5t208 82.5q127 0 209.5 -82.5t82.5 -210.5q0 -131 -82.5 -213t-209.5 -82q-126 0 -208.5 82t-82.5 213zM129 27l1075 1331l90 -76l-1075 -1331zM225 1040q0 -69 40 -111t100 -42q59 0 100 42t41 111q0 67 -41 108.5t-100 41.5q-60 0 -100 -41 t-40 -109zM768 270q0 127 83.5 210t209.5 83q125 0 208 -83t83 -210q0 -131 -82.5 -213t-208.5 -82q-127 0 -210 82t-83 213zM920 270q0 -69 40.5 -112t100.5 -43q58 0 98.5 43t40.5 112q0 67 -40 107.5t-99 40.5q-60 0 -100.5 -40.5t-40.5 -107.5z" />
<glyph unicode="&#x26;" horiz-adv-x="1236" d="M80 328q0 126 62.5 213.5t181.5 148.5q-74 71 -118 153t-44 161q0 144 104.5 236.5t237.5 92.5q89 0 170 -39.5t134.5 -116.5t53.5 -173q0 -107 -72.5 -200.5t-179.5 -148.5l285 -284q89 124 139 276l125 -127q-53 -157 -141 -272l248 -248h-252l-117 117 q-173 -142 -401 -142q-180 0 -298 103.5t-118 249.5zM268 338q0 -83 70 -142t168 -59q136 0 268 103l-330 329q-92 -46 -134 -98.5t-42 -132.5zM340 1001q0 -49 35.5 -99t113.5 -126q91 47 143 107t52 118q0 65 -54 119t-126 54q-67 0 -115.5 -54.5t-48.5 -118.5z" />
<glyph unicode="'" horiz-adv-x="325" d="M80 1458h166l-37 -469h-98z" />
<glyph unicode="(" horiz-adv-x="552" d="M86 494q0 529 231 962l187 -41q-108 -197 -172 -435t-64 -484q0 -264 54.5 -494t171.5 -467l-193 43q-106 210 -160.5 422.5t-54.5 493.5z" />
<glyph unicode=")" horiz-adv-x="552" d="M49 -426q108 197 172 435t64 483q0 264 -55 492.5t-171 469.5l193 -45q106 -210 160.5 -422t54.5 -493q0 -282 -60 -516t-174 -447z" />
<glyph unicode="*" horiz-adv-x="851" d="M61 1049l19 168l276 -111l-16 264l170 39l-21 -303l244 102l90 -149l-291 -76l170 -207l-114 -127l-164 252l-141 -223l-156 72l190 233z" />
<glyph unicode="+" horiz-adv-x="929" d="M82 487v160h297v281h174v-281h295v-160h-295v-280h-174v280h-297z" />
<glyph unicode="," horiz-adv-x="403" d="M43 -256q54 68 89.5 139.5t43.5 120.5q-28 5 -64 39.5t-36 58.5q0 33 47.5 78t77.5 45q28 0 76.5 -45t48.5 -78q0 -62 -69 -181.5t-142 -188.5z" />
<glyph unicode="-" horiz-adv-x="675" d="M82 487v160h512v-160h-512z" />
<glyph unicode="." horiz-adv-x="403" d="M76 102q0 29 47 76t78 47t78 -47t47 -76q0 -31 -47 -78t-78 -47t-78 47t-47 78z" />
<glyph unicode="/" horiz-adv-x="1263" d="M37 63l1071 1319l119 -98l-1065 -1321z" />
<glyph unicode="0" horiz-adv-x="1134" d="M82 655q0 171 40.5 304.5t109.5 213t154 120t181 40.5q74 0 143.5 -24.5t132 -78.5t109 -131.5t74 -191.5t27.5 -252q0 -139 -27.5 -253.5t-74 -192.5t-109 -131.5t-132 -78t-143.5 -24.5q-96 0 -181 40t-154 120t-109.5 214t-40.5 306zM270 655q0 -111 16.5 -200 t44.5 -147t67 -96t80.5 -54.5t88.5 -16.5q58 0 109 27.5t94.5 85t68.5 160.5t25 241q0 136 -25.5 238.5t-68.5 160.5t-94 85.5t-109 27.5q-59 0 -110 -27.5t-94 -85.5t-68 -160t-25 -239z" />
<glyph unicode="1" horiz-adv-x="677" d="M37 1139l35 155l422 39v-1333h-187v1165z" />
<glyph unicode="2" horiz-adv-x="985" d="M59 0v37q278 293 435 518t157 373q0 118 -66 179.5t-171 61.5q-76 0 -140.5 -24t-134.5 -70l-39 164q145 94 314 94q190 0 308 -107.5t118 -303.5q0 -72 -33.5 -162t-83.5 -173t-113.5 -168.5t-118.5 -148t-104 -110.5h522v-160h-850z" />
<glyph unicode="3" horiz-adv-x="866" d="M63 205q113 -64 238 -64q55 0 106.5 16.5t94.5 48t68.5 84.5t25.5 120q0 102 -80 178t-192 76q-23 0 -37 -2l-37 153q104 21 173 78t69 129q0 68 -48 108.5t-120 40.5q-59 0 -106 -13t-105 -46l-33 158q114 63 250 63q152 0 250 -82.5t98 -212.5q0 -95 -53 -169t-119 -93 q51 -12 98.5 -42t88.5 -77t66 -117t25 -153q0 -182 -126 -296t-349 -114q-105 0 -203 39z" />
<glyph unicode="4" horiz-adv-x="1015" d="M27 498l616 809h125v-805h154v-152h-154v-350h-186v350h-523zM221 502h361v317q0 103 2 160l-4 2q-38 -61 -117 -164z" />
<glyph unicode="5" horiz-adv-x="921" d="M100 213q124 -72 271 -72q118 0 199 70.5t81 189.5q0 122 -80.5 195.5t-193.5 73.5q-132 0 -225 -35l20 672h571l-34 -160h-359l-8 -318q40 5 53 5q189 0 317 -119t128 -316q0 -85 -30 -161t-86 -134.5t-144.5 -92.5t-198.5 -34q-147 0 -238 48z" />
<glyph unicode="6" horiz-adv-x="1042" d="M82 451q0 260 171 512.5t435 388.5l184 -86q-191 -92 -327 -224t-211 -286q69 69 207 69q185 0 302.5 -121t117.5 -301q0 -184 -123.5 -305t-311.5 -121q-90 0 -170 31.5t-141 90t-97 149.5t-36 203zM272 412q0 -109 78 -190t180 -81q103 0 172.5 72.5t69.5 187.5 q0 111 -69 186t-175 75q-198 0 -252 -175q-4 -18 -4 -75z" />
<glyph unicode="7" horiz-adv-x="946" d="M63 1147v160h867l-561 -1307h-201l496 1147h-601z" />
<glyph unicode="8" horiz-adv-x="1038" d="M82 362q0 69 26 132t66.5 106t80 71.5t75.5 43.5q-76 31 -133.5 108.5t-57.5 177.5q0 145 107.5 238.5t271.5 93.5t272.5 -93.5t108.5 -238.5q0 -99 -57 -173.5t-133 -108.5q36 -14 76 -43t80 -73t65.5 -107.5t25.5 -133.5q0 -177 -126.5 -282t-311.5 -105t-310.5 105 t-125.5 282zM258 369q0 -98 75.5 -164t178.5 -66q106 0 181 66t75 164q0 92 -81 159t-183 95q-44 -13 -85.5 -35t-78.5 -53t-59.5 -74.5t-22.5 -91.5zM322 997q0 -67 57 -121t149 -79q90 26 141.5 80t51.5 120q0 76 -58 127.5t-143 51.5q-82 0 -140 -51.5t-58 -127.5z" />
<glyph unicode="9" horiz-adv-x="1042" d="M82 907q0 184 123 305t311 121q90 0 170 -31.5t141.5 -89.5t97.5 -149t36 -203q0 -260 -171.5 -512.5t-435.5 -388.5l-184 86q192 92 328 224t211 286q-70 -70 -207 -70q-185 0 -302.5 121t-117.5 301zM270 909q0 -111 69 -185.5t175 -74.5q199 0 252 174q4 18 4 76 q0 109 -78 189.5t-180 80.5q-103 0 -172.5 -72.5t-69.5 -187.5z" />
<glyph unicode=":" horiz-adv-x="403" d="M76 102q0 29 47 76t78 47t78 -47t47 -76q0 -31 -47 -78t-78 -47t-78 47t-47 78zM76 825q0 31 47 78t78 47t78 -47t47 -78q0 -29 -47 -76t-78 -47t-78 47t-47 76z" />
<glyph unicode=";" horiz-adv-x="403" d="M43 -256q54 68 89.5 139.5t43.5 120.5q-28 5 -64 39.5t-36 58.5q0 33 47.5 78t77.5 45q28 0 76.5 -45t48.5 -78q0 -62 -69 -181.5t-142 -188.5zM76 825q0 31 47 78t78 47t78 -47t47 -78q0 -29 -47 -76t-78 -47t-78 47t-47 76z" />
<glyph unicode="&#x3c;" horiz-adv-x="733" d="M80 567l369 369l120 -119l-247 -250l247 -250l-120 -118z" />
<glyph unicode="=" horiz-adv-x="929" d="M82 311v160h766v-160h-766zM82 664v159h766v-159h-766z" />
<glyph unicode="&#x3e;" horiz-adv-x="733" d="M164 317l248 250l-248 250l121 119l368 -369l-368 -368z" />
<glyph unicode="?" horiz-adv-x="802" d="M45 1323q46 45 119 70.5t158 25.5q177 0 288 -98.5t111 -269.5q0 -95 -46.5 -174.5t-144.5 -186.5q-104 -112 -104 -241q0 -88 6 -119l-153 35q-15 66 -15 108q0 93 34 181.5t95 152.5q70 73 101.5 131.5t31.5 134.5q0 68 -55 125t-147 57q-75 0 -131.5 -26t-110.5 -76z M240 102q0 29 47 76t78 47q32 0 78 -46.5t46 -76.5q0 -31 -46 -78t-78 -47q-31 0 -78 47t-47 78z" />
<glyph unicode="@" horiz-adv-x="1568" d="M82 545q0 161 65.5 307.5t175.5 252t261 168t315 62.5q134 0 245.5 -43.5t186 -118.5t115.5 -175t41 -214q0 -85 -26.5 -173t-75.5 -163.5t-127.5 -123.5t-172.5 -48q-57 0 -98 37.5t-45 104.5q-37 -68 -105.5 -105t-160.5 -37q-94 0 -164 73t-70 198q0 104 41.5 195 t109 151.5t152.5 95.5t173 35q75 0 135 -24t92 -56l-70 -436q-2 -8 -2 -23q0 -61 39 -61q73 0 150 109.5t77 254.5q0 180 -125.5 295t-328.5 115q-172 0 -321 -85.5t-238.5 -236.5t-89.5 -331q0 -108 34 -192t93.5 -134t132.5 -75t157 -25q146 0 226 71l-41 -161 q-69 -52 -213 -52q-153 0 -276.5 70t-195 200.5t-71.5 297.5zM608 551q0 -65 31 -99t86 -34q70 0 131 77t84 205l29 168q-30 13 -64 13q-120 0 -208.5 -95t-88.5 -235z" />
<glyph unicode="A" horiz-adv-x="1267" d="M41 0l557 1325h72l557 -1325h-201l-141 338h-508l-141 -338h-195zM444 496h373l-129 319q-28 66 -55 160h-4q-17 -67 -56 -160z" />
<glyph unicode="B" horiz-adv-x="1067" d="M133 0v1307h365q67 0 131 -22t117 -63t85.5 -108t32.5 -149q0 -75 -33 -140.5t-88 -89.5q96 -28 169 -123t73 -215q0 -97 -38 -175t-100.5 -125.5t-137 -72t-152.5 -24.5h-424zM330 168h186q112 0 189 58t77 171q0 111 -77.5 170.5t-188.5 59.5h-186v-459zM330 795h135 q86 0 142.5 42t56.5 128q0 87 -56.5 130.5t-142.5 43.5h-135v-344z" />
<glyph unicode="C" horiz-adv-x="1228" d="M82 653q0 131 42 244t112 191.5t161.5 135t190 83t198.5 26.5q232 0 385 -86l-34 -172q-53 34 -143.5 60t-184.5 26q-98 0 -190.5 -32t-168 -93t-121.5 -160.5t-46 -222.5q0 -98 29.5 -182t80 -142.5t118 -100t143 -61.5t155.5 -20q223 0 360 82l-41 -190 q-64 -33 -142 -48.5t-200 -15.5q-100 0 -199.5 27t-190.5 83.5t-161 135.5t-111.5 191t-41.5 241z" />
<glyph unicode="D" horiz-adv-x="1323" d="M133 0v1307h402q110 0 213.5 -27t193 -82t156 -132t105 -183.5t38.5 -229.5t-38.5 -229.5t-105 -183t-156 -131.5t-193 -82t-213.5 -27h-402zM330 168h170q90 0 169.5 18.5t147.5 57t117 95t76.5 137t27.5 177.5q0 121 -42 215.5t-116.5 152.5t-170.5 88t-209 30h-170 v-971z" />
<glyph unicode="E" horiz-adv-x="952" d="M133 0v1307h705v-170h-506v-396h424v-170h-424v-401h577v-170h-776z" />
<glyph unicode="F" horiz-adv-x="884" d="M133 0v1307h723v-170h-524v-396h442v-170h-442v-571h-199z" />
<glyph unicode="G" horiz-adv-x="1394" d="M82 653q0 131 42 244t112 191.5t161.5 135t190 83t198.5 26.5q258 0 422 -104l-37 -172q-164 104 -362 104q-98 0 -190.5 -32.5t-168 -93.5t-121.5 -161t-46 -223q0 -98 29.5 -181.5t80 -142t118 -100t143.5 -61t157 -19.5q180 0 276 68v272h-301v160h490v-530 q-178 -142 -477 -142q-107 0 -210 27.5t-194.5 84.5t-161.5 136t-110.5 190t-40.5 240z" />
<glyph unicode="H" horiz-adv-x="1337" d="M133 0v1307h199v-566h674v566h198v-1307h-198v571h-674v-571h-199z" />
<glyph unicode="I" horiz-adv-x="526" d="M164 0v1307h198v-1307h-198z" />
<glyph unicode="J" horiz-adv-x="557" d="M-125 -135q320 58 320 414v1028h198v-1049q0 -95 -23.5 -177t-62.5 -140t-90.5 -102.5t-104.5 -69.5t-108 -35z" />
<glyph unicode="K" horiz-adv-x="1114" d="M133 0v1307h199v-617l516 617h229l-542 -645l555 -662h-244l-514 612v-612h-199z" />
<glyph unicode="L" horiz-adv-x="917" d="M133 0v1307h199v-1137h575v-170h-774z" />
<glyph unicode="M" horiz-adv-x="1699" d="M113 0l112 1307h123l348 -672q113 -218 164 -336h4q41 101 160 336l344 672h123l117 -1307h-189l-53 590q-14 155 -20 297h-5q-55 -122 -147 -303l-303 -594h-74l-307 594q-47 89 -145 299h-5q-3 -69 -20 -293l-51 -590h-176z" />
<glyph unicode="N" horiz-adv-x="1437" d="M133 0v1307h137l561 -615q199 -220 275 -313l4 2q-4 100 -4 307v619h199v-1336h-60l-612 670q-109 118 -301 344l-4 -2q4 -119 4 -328v-655h-199z" />
<glyph unicode="O" d="M82 655q0 123 38.5 231.5t105 189t154.5 139.5t189 88.5t205 29.5t205 -29.5t189 -88.5t154.5 -139.5t105 -189t38.5 -231.5q0 -124 -38.5 -233t-105 -190t-154.5 -139.5t-188.5 -88t-205.5 -29.5t-205.5 29.5t-188.5 88t-154.5 139.5t-105 190t-38.5 233zM283 655 q0 -117 42.5 -215t112.5 -161t157 -97.5t179 -34.5q72 0 142.5 21.5t133.5 64.5t111.5 103t76.5 142.5t28 176.5q0 117 -43 215t-114 160.5t-157.5 96.5t-177.5 34q-92 0 -179 -34t-157 -96.5t-112.5 -160.5t-42.5 -215z" />
<glyph unicode="P" horiz-adv-x="956" d="M133 0v1307h393q71 0 139.5 -23t126 -67t93 -116t35.5 -161t-35.5 -161t-93 -116t-126 -67t-139.5 -23h-196v-573h-197zM330 741h162q95 0 160 51t65 148q0 96 -65.5 147.5t-159.5 51.5h-162v-398z" />
<glyph unicode="Q" d="M82 655q0 123 38.5 231.5t105 189t154.5 139.5t189 88.5t205 29.5t205 -29.5t189 -88.5t154.5 -139.5t105 -189t38.5 -231.5q0 -233 -132 -405t-328 -230v-4q37 -8 161 -67q125 -60 244 -60q75 0 139 25l-125 -174q-24 -6 -55 -6q-98 0 -176.5 21t-167.5 69 q-160 83 -319 156q-123 11 -234.5 62.5t-199 136t-139.5 208.5t-52 268zM283 655q0 -117 42.5 -215t112.5 -161t157 -97.5t179 -34.5q72 0 142.5 21.5t133.5 64.5t111.5 103t76.5 142.5t28 176.5q0 117 -43 215t-114 160.5t-157.5 96.5t-177.5 34q-92 0 -179 -34t-157 -96.5 t-112.5 -160.5t-42.5 -215z" />
<glyph unicode="R" horiz-adv-x="1136" d="M133 0v1307h414q71 0 139.5 -23t126 -67t92.5 -116t35 -161q0 -124 -63.5 -209.5t-165.5 -126.5l446 -604h-231l-412 573h-184v-573h-197zM330 741h182q95 0 160 51t65 148q0 96 -65.5 147.5t-159.5 51.5h-182v-398z" />
<glyph unicode="S" horiz-adv-x="976" d="M63 281q190 -134 394 -134q109 0 175 56t66 147q0 85 -54.5 143.5t-172.5 96.5q-356 116 -356 387q0 70 26 133t75.5 113t130 80t181.5 30q89 0 167 -23t118 -53l-39 -163q-39 28 -110 51.5t-144 23.5q-97 0 -156 -51.5t-59 -126.5q0 -64 54 -116t157 -87 q183 -63 282 -162.5t99 -256.5q0 -179 -117.5 -286.5t-333.5 -107.5q-100 0 -190.5 25.5t-146.5 62.5z" />
<glyph unicode="T" horiz-adv-x="1058" d="M10 1137v170h1039v-170h-420v-1137h-199v1137h-420z" />
<glyph unicode="U" horiz-adv-x="1331" d="M133 461v846h199v-826q0 -151 85.5 -240t250.5 -89q166 0 252 89t86 240v826h192v-846q0 -224 -149 -355t-383 -131t-383.5 131t-149.5 355z" />
<glyph unicode="V" horiz-adv-x="1142" d="M20 1307h209l242 -623q58 -149 109 -311h4q64 199 108 311l242 623h188l-518 -1325h-63z" />
<glyph unicode="W" horiz-adv-x="1841" d="M31 1307h198l211 -602q71 -197 97 -299h4q39 144 94 299l209 602h170l211 -602q49 -142 92 -299h4q27 104 96 299l211 602h182l-464 -1325h-68l-244 698q-60 173 -112 350h-4q-53 -181 -113 -350l-244 -698h-67z" />
<glyph unicode="X" horiz-adv-x="1175" d="M51 0l418 662l-399 645h225l203 -328q58 -94 94 -162h4q44 82 94 162l205 328h211l-397 -633l415 -674h-225l-213 344q-32 52 -100 172h-4q-37 -68 -103 -172l-217 -344h-211z" />
<glyph unicode="Y" horiz-adv-x="1236" d="M20 1307h218l262 -369q42 -59 123 -184h4q22 34 125 184l262 369h203l-502 -705v-602h-195v602z" />
<glyph unicode="Z" horiz-adv-x="1040" d="M61 0v47l414 727q178 306 215 365l-2 2h-594v166h871v-47l-418 -730q-149 -256 -213 -362l2 -2h651v-166h-926z" />
<glyph unicode="[" horiz-adv-x="610" d="M115 -446v1880h434v-156h-252v-1569h252v-155h-434z" />
<glyph unicode="\" horiz-adv-x="1263" d="M37 1284l119 98l1071 -1319l-125 -100z" />
<glyph unicode="]" horiz-adv-x="610" d="M74 -291h252v1569h-252v156h434v-1880h-434v155z" />
<glyph unicode="^" horiz-adv-x="759" d="M66 1135q177 76 315 272q139 -197 313 -272l-114 -111q-124 59 -199 137q-81 -81 -199 -137z" />
<glyph unicode="_" horiz-adv-x="1024" d="M-2 -313h1030v-160h-1030v160z" />
<glyph unicode="`" horiz-adv-x="819" d="M193 1200l40 168q78 -73 187.5 -128.5t216.5 -86.5l-102 -100q-110 30 -185.5 60.5t-156.5 86.5z" />
<glyph unicode="a" horiz-adv-x="933" d="M72 262q0 128 89 207t216 90l217 21v59q0 68 -43.5 110t-136.5 42q-144 0 -256 -74l-37 153q122 80 303 80q160 0 258 -88t98 -248v-374q0 -61 29.5 -98.5t75.5 -45.5l-119 -119q-47 10 -83.5 43t-51.5 76q-91 -119 -260 -119q-133 0 -216 84t-83 201zM250 260 q0 -50 37 -87.5t92 -37.5q77 0 146 62.5t69 146.5v82l-184 -16q-78 -7 -119 -50.5t-41 -99.5z" />
<glyph unicode="b" horiz-adv-x="1048" d="M123 63v1395h186v-538q66 30 162 30q133 0 247.5 -58t186.5 -169t72 -252q0 -227 -146.5 -360.5t-384.5 -133.5q-182 0 -323 86zM309 166q69 -25 137 -25q160 0 251 89.5t91 240.5q0 71 -27.5 131.5t-72.5 100t-101.5 61.5t-115.5 22q-94 0 -162 -41v-579z" />
<glyph unicode="c" horiz-adv-x="937" d="M72 463q0 111 43 204.5t113.5 154t160.5 94.5t186 34q172 0 297 -69l-34 -164q-109 69 -250 69q-134 0 -231 -89t-97 -234q0 -96 48 -171t123 -113t161 -38q126 0 266 66l-39 -182q-105 -48 -244 -48q-129 0 -242.5 57t-187 170t-73.5 259z" />
<glyph unicode="d" horiz-adv-x="1101" d="M72 463q0 213 140 350t349 137q140 0 232 -61v569h186v-1458h-160l-6 74q-91 -97 -287 -97q-77 0 -155.5 31.5t-146 90t-110 154t-42.5 210.5zM260 463q0 -142 87 -232t214 -90q72 0 133 26t99 69v464q-39 38 -100.5 62t-131.5 24q-127 0 -214 -90t-87 -233z" />
<glyph unicode="e" horiz-adv-x="1005" d="M72 463q0 113 41.5 208t108.5 154.5t147.5 92t162.5 32.5q93 0 170.5 -30.5t127 -81t77 -113t27.5 -127.5q0 -46 -6 -76l-105 -104h-559q2 -45 24 -92t61 -89t103.5 -69t141.5 -27q163 0 297 95l-47 -199q-113 -60 -275 -60q-132 0 -245 60.5t-182.5 173t-69.5 252.5z M276 569h467q2 8 2 25q0 74 -57 135.5t-145 61.5q-90 0 -169.5 -63.5t-97.5 -158.5z" />
<glyph unicode="f" horiz-adv-x="686" d="M20 778v150h158v86q0 225 106.5 338.5t309.5 113.5q84 0 158 -30l-33 -158q-67 33 -160 33q-91 0 -142.5 -70.5t-51.5 -169.5v-143h268l-31 -150h-237v-778h-187v778h-158z" />
<glyph unicode="g" horiz-adv-x="942" d="M47 -139q0 99 56.5 174.5t136.5 103.5l-95 94q0 48 31 88.5t74 63.5q-65 46 -101 111t-36 141q0 137 97.5 225t250.5 88q60 0 114 -14q47 -12 119 -12q71 0 137 32l35 -153q-11 -8 -40 -16t-52 -9q33 -57 33 -141q0 -130 -94.5 -221.5t-251.5 -91.5q-60 0 -89.5 -11.5 t-29.5 -40.5q0 -21 27 -32l254 -88q129 -45 194.5 -120t65.5 -198q0 -133 -115 -220t-299 -87q-189 0 -305.5 94t-116.5 240zM213 -139q0 -75 66.5 -130t185.5 -55q115 0 180.5 49t65.5 111q0 114 -144 158l-161 47q-85 0 -139 -51.5t-54 -128.5zM283 637q0 -67 51 -113.5 t127 -46.5q71 0 123.5 47t52.5 113q0 65 -50.5 112.5t-125.5 47.5t-126.5 -48t-51.5 -112z" />
<glyph unicode="h" horiz-adv-x="1046" d="M123 0v1458h186v-1v-1v-1v-1v-1v-1v-1v-1v-1v-1v-1v-1v-1v-1v-1v-1v-1v-1v-1v-1v-1v-1v-1v-1v-1v-1v-1v-1v-1v-1v-1v-1v-1v-1v-1v-1v-1v-1v-1v-1v-1v-1v-1v-1v-1v-1v-1v-1v-1v-1v-1v-1v-1v-1v-1v-1v-1v-1v-1v-1v-1v-1v-1v-1v-1v-1v-1v-1v-1v-1v-1v-1v-1v-1v-1v-1v-1v-1 v-1v-1v-1v-1v-1v-1v-1v-1v-1v-1v-1v-1v-1v-1v-1v-1v-1v-1v-1v-1v-1v-1v-1v-1v-1v-1v-2v-1v-1v-1v-1v-1v-1v-1v-1v-1v-1v-1v-1v-1v-2v-1v-1v-1v-1v-1v-1v-1v-1v-2v-1v-1v-1v-1v-1v-1v-2v-1v-1v-1v-1v-1v-1v-2v-1v-1v-1v-1v-2v-1v-1v-1v-1v-2v-1v-1v-1v-1v-2v-1v-1v-1v-2v-1 v-1v-1v-2v-1v-1v-1v-2v-1v-1v-1v-2v-1v-1v-2v-1v-1v-1v-2v-1v-1v-2v-1v-1v-2v-1v-1v-1v-2v-1v-1v-2v-1v-1v-2v-1v-2v-1v-1v-2v-1v-1v-2v-1v-1v-2v-1v-2v-1v-1v-2v-1v-1v-2v-1v-2v-1v-1v-2v-1v-2v-1v-2v-1v-1v-2v-1v-2v-1v-2v-1v-1v-2v-1v-2v-1v-2v-1v-2v-1v-2v-1v-1v-2v-1 v-2v-1v-2v-1v-2v-1v-2v-1v-2v-1v-2v-1v-2v-1v-2v-1v-2v-1v-2v-2v-1v-2v-1v-2v-1v-2v-1v-2v-1v-2v-1v-2v-2v-1v-2v-1v-2v-1v-2v-2v-1v-2v-1v-2v-2v-1v-2v-1v-2v-2v-1v-2v-1v-2v-2v-1v-2v-1v-2v-2v-1v-2v-2v-1v-2v-1v-2v-2v-1v-2v-2v-1v-2v-2v-1v-2v-2v-1v-2v-2v-1v-2v-2v-1 v-2v-2v-1v-2v-2v-2v-1v-2v-2v-1v-2v-2v-1v-2v-2v-2v-1v-2v-2v-2v-1v-2v-2v-2v-1v-2v-2v-1v-2v-2v-2v-2v-1v-2v-2v-2v-1v-2v-2v-2v-1v-2v-2v-2v-2v-1v-2v-2v-2v-2v-1v-2v-2v-2v-2v-2v-1v-2v-2v-2v-2v-2v-1v-2v-2v-2v-2v-2v-1v-2v-2v-2v-2v-2v-2v-2v-1v-2v-2v-2v-2v-2v-2v-2 v-2v-2v-1v-2v-2v-2v-2v-2v-2v-2v-2v-2v-2v-2v-2v-8q53 52 114 75t159 23q155 0 253.5 -91.5t98.5 -244.5v-614h-186v596q0 81 -53.5 138t-162.5 57q-106 0 -164.5 -58t-58.5 -137v-596h-186z" />
<glyph unicode="i" horiz-adv-x="495" d="M135 1219q0 29 42.5 71.5t70.5 42.5q29 0 71.5 -42.5t42.5 -71.5q0 -28 -42.5 -70.5t-71.5 -42.5q-28 0 -70.5 42.5t-42.5 70.5zM154 0v928h188v-928h-188z" />
<glyph unicode="j" horiz-adv-x="495" d="M-47 -356q201 45 201 270v1014h188v-1028q0 -139 -82 -243.5t-188 -129.5zM133 1219q0 29 43 71.5t72 42.5q28 0 70 -42.5t42 -71.5q0 -28 -42 -70.5t-70 -42.5q-29 0 -72 42.5t-43 70.5z" />
<glyph unicode="k" horiz-adv-x="940" d="M123 0v1458h186v-973l396 443h221l-406 -459l418 -469h-242l-387 436v-436h-186z" />
<glyph unicode="l" horiz-adv-x="538" d="M154 219v1239h186v-1214q0 -60 39 -103t86 -51l-127 -127q-28 7 -55.5 22.5t-58.5 44t-50.5 77.5t-19.5 112z" />
<glyph unicode="m" horiz-adv-x="1601" d="M113 0v928h163l9 -92q57 62 117.5 88t164.5 26q82 0 152.5 -37.5t107.5 -93.5q115 131 334 131q141 0 234.5 -85t93.5 -214v-651h-186v635q0 71 -52.5 112t-150.5 41q-95 0 -150 -43.5t-55 -109.5v-635h-186v635q0 71 -53 112t-152 41q-95 0 -150 -43.5t-55 -109.5v-635 h-186z" />
<glyph unicode="n" horiz-adv-x="1036" d="M113 0v928h163l9 -92q57 61 119 87.5t167 26.5q155 0 254 -91.5t99 -244.5v-614h-187v596q0 81 -53 138t-162 57q-106 0 -164.5 -58t-58.5 -137v-596h-186z" />
<glyph unicode="o" horiz-adv-x="1128" d="M72 463q0 214 141.5 350.5t351.5 136.5t351 -136.5t141 -350.5q0 -141 -65.5 -252.5t-177.5 -172.5t-249 -61t-249.5 61t-178 172.5t-65.5 252.5zM260 463q0 -141 89.5 -231.5t215.5 -90.5q125 0 214 90.5t89 231.5q0 142 -89 232.5t-214 90.5q-127 0 -216 -90t-89 -233z " />
<glyph unicode="p" horiz-adv-x="1101" d="M123 -473v1401h160l6 -74q90 96 286 96q61 0 124 -19t122.5 -59.5t106 -96.5t74.5 -136.5t28 -173.5q0 -213 -140 -350.5t-349 -137.5q-138 0 -232 62v-512h-186zM309 227q39 -38 100.5 -62t131.5 -24q127 0 214 90.5t87 233.5q0 142 -87 231.5t-214 89.5 q-73 0 -133.5 -25.5t-98.5 -68.5v-465z" />
<glyph unicode="q" horiz-adv-x="1048" d="M72 471q0 147 70 258t181 166t242 55q59 0 124 -15t110 -36l82 47h45v-1419h-187v481q-76 -31 -161 -31q-99 0 -190.5 34.5t-161.5 96.5t-112 156.5t-42 206.5zM260 471q0 -149 96 -239.5t222 -90.5q90 0 161 41v561q-69 43 -174 43q-127 0 -216 -87t-89 -228z" />
<glyph unicode="r" horiz-adv-x="698" d="M133 0v928h176l8 -146q35 82 119 120t197 38l35 -158h-19q-61 0 -116 -17.5t-104.5 -55t-79.5 -107.5t-30 -164v-438h-186z" />
<glyph unicode="s" horiz-adv-x="768" d="M55 250q59 -51 141.5 -83t165.5 -32q65 0 106.5 31.5t41.5 79.5t-33 79.5t-100 55.5q-145 54 -216 124.5t-71 178.5q0 117 86.5 191.5t224.5 74.5q72 0 141 -19t101 -40l-35 -156q-85 60 -209 60q-58 0 -93.5 -29.5t-35.5 -75.5q0 -43 32 -70t104 -53q148 -54 219 -125.5 t71 -187.5q0 -119 -88 -198t-250 -79q-78 0 -147 19t-113 49z" />
<glyph unicode="t" horiz-adv-x="737" d="M18 778v150h183v188l184 96v-284h328l-33 -150h-295v-516q0 -55 39 -86t98 -31q60 0 103 15l-37 -166q-27 -8 -84 -8q-132 0 -217.5 74.5t-85.5 207.5v510h-183z" />
<glyph unicode="u" horiz-adv-x="1036" d="M113 313v615h186v-596q0 -81 53 -138t162 -57q106 0 164.5 58t58.5 137v596h187v-928h-164l-8 92q-57 -61 -119.5 -88t-167.5 -27q-155 0 -253.5 91.5t-98.5 244.5z" />
<glyph unicode="v" horiz-adv-x="954" d="M51 928h189l168 -410q37 -87 75 -203h4q35 105 76 203l166 410h174l-389 -944h-76z" />
<glyph unicode="w" horiz-adv-x="1452" d="M61 928h177l145 -393q34 -92 63 -195h5q58 178 65 195l146 393h135l147 -393q34 -89 64 -195h4q15 53 65 195l146 393h168l-351 -944h-67l-168 446q-39 101 -78 229h-4q-40 -134 -76 -225l-168 -450h-67z" />
<glyph unicode="x" horiz-adv-x="911" d="M61 0l287 469l-274 459h207l118 -203q6 -12 26 -46t30 -54h4q3 6 57 100l119 203h201l-273 -451l287 -477h-209l-127 213q-37 63 -59 109h-4q-11 -22 -35 -62.5t-27 -46.5l-127 -213h-201z" />
<glyph unicode="y" horiz-adv-x="980" d="M2 -369q130 48 222.5 151.5t172.5 299.5l-346 846h193l172 -422q36 -84 80 -209h4q29 83 78 203l174 428h178l-342 -838q-99 -244 -213 -375.5t-260 -197.5z" />
<glyph unicode="z" horiz-adv-x="860" d="M57 0v37l279 489q87 154 145 244l-2 2h-393v156h676v-37l-281 -490q-19 -34 -145 -243l2 -2h461v-156h-742z" />
<glyph unicode="{" horiz-adv-x="712" d="M41 492q186 118 186 436q0 108 22.5 197.5t68 159.5t122 108.5t178.5 38.5l33 -144q-241 0 -241 -368q0 -139 -37.5 -242.5t-120.5 -185.5q158 -148 158 -429q0 -368 241 -368l-33 -144q-102 0 -178.5 39t-122 108.5t-68 159.5t-22.5 199q0 320 -186 435z" />
<glyph unicode="|" horiz-adv-x="487" d="M164 -473v1931h160v-1931h-160z" />
<glyph unicode="}" horiz-adv-x="712" d="M61 -305q242 0 242 368q0 281 158 429q-83 82 -120.5 185.5t-37.5 242.5q0 368 -242 368l33 144q102 0 178.5 -38.5t122 -108.5t68 -159.5t22.5 -197.5q0 -318 187 -436q-187 -116 -187 -435q0 -109 -22.5 -199t-68 -159.5t-122 -108.5t-178.5 -39z" />
<glyph unicode="~" horiz-adv-x="819" d="M123 461l37 147q87 48 145.5 71t132.5 28l31 -129q109 17 231 88l-36 -144q-72 -48 -135 -71t-144 -29l-31 125q-111 -15 -231 -86z" />
<glyph unicode="&#xa1;" horiz-adv-x="546" d="M141 1208q0 31 47 78t78 47t78 -47t47 -78q0 -29 -47 -76t-78 -47t-78 47t-47 76zM164 -86l33 1063l153 -35l33 -1028h-219z" />
<glyph unicode="&#xa2;" horiz-adv-x="937" d="M72 827q0 101 36 188.5t97 148t139.5 98.5t165.5 49v198h117v-196q135 -8 245 -68l-34 -164q-111 70 -250 70q-134 0 -231 -89.5t-97 -234.5q0 -143 99 -232t233 -89q128 0 266 65l-39 -182q-86 -39 -192 -45v-176h-117v178q-87 11 -165.5 49t-139.5 98t-97 147t-36 187z " />
<glyph unicode="&#xa3;" horiz-adv-x="856" d="M31 596v117h157v159q0 225 106.5 339t309.5 114q82 0 158 -31l-33 -157q-65 32 -160 32q-91 0 -143.5 -70.5t-52.5 -168.5v-217h295l-13 -117h-282v-96q0 -227 -56 -330q86 12 183 12q173 0 309 -43l-23 -162q-130 50 -292 50q-165 0 -283 -41l-139 73q116 164 116 457 v80h-157z" />
<glyph unicode="&#xa4;" horiz-adv-x="991" d="M76 895l82 84l131 -131q89 67 207 67q112 0 200 -63l131 131l82 -82l-129 -131q64 -89 64 -203q0 -117 -68 -207l133 -133l-84 -82l-133 134q-92 -60 -196 -60q-109 0 -203 64l-133 -133l-82 83l133 134q-64 89 -64 200q0 106 60 195q1 0 -32 33t-66 67zM258 567 q0 -100 69 -169.5t169 -69.5t170.5 69.5t70.5 169.5q0 98 -70.5 168t-170.5 70q-99 0 -168.5 -69.5t-69.5 -168.5z" />
<glyph unicode="&#xa5;" horiz-adv-x="1236" d="M20 1307h222l262 -369q42 -59 123 -184h4q22 34 125 184l262 369h199l-361 -506h135v-117h-219l-57 -80v-37h276v-116h-276v-451h-195v451h-278v116h278v33l-55 84h-223v117h137z" />
<glyph unicode="&#xa6;" horiz-adv-x="487" d="M164 371h160v-844h-160v844zM164 614v844h160v-844h-160z" />
<glyph unicode="&#xa7;" horiz-adv-x="952" d="M121 520l61 268q-27 33 -44 87t-17 110q0 67 26.5 128.5t75.5 109.5t124 77t165 29q172 0 297 -69l-37 -170q-113 73 -256 73q-99 0 -155 -50.5t-56 -127.5q0 -21 12 -54.5t31 -53.5l498 -521l-62 -268q27 -33 44.5 -86.5t17.5 -110.5q0 -140 -105 -242t-284 -102 q-174 0 -295 72l33 168q128 -74 258 -74q99 0 155 50.5t56 127.5q0 64 -43 109zM244 604l448 -465l31 137l-451 463z" />
<glyph unicode="&#xa8;" horiz-adv-x="819" d="M145 1159q0 27 41 68t66 41q28 0 67 -40.5t39 -68.5q0 -25 -39.5 -65.5t-66.5 -40.5q-25 0 -66 40.5t-41 65.5zM459 1159q0 28 39 68.5t67 40.5t67.5 -40.5t39.5 -68.5q0 -25 -40 -65.5t-67 -40.5t-66.5 40.5t-39.5 65.5z" />
<glyph unicode="&#xa9;" horiz-adv-x="1228" d="M72 512q0 155 72 279t195.5 192t274.5 68q231 0 387 -152t156 -387q0 -155 -72 -278.5t-196 -192t-275 -68.5q-150 0 -274 68.5t-196 192.5t-72 278zM186 512q0 -187 119.5 -310.5t308.5 -123.5q187 0 307.5 124t120.5 310t-120.5 310t-307.5 124q-189 0 -308.5 -123.5 t-119.5 -310.5zM350 508q0 127 91.5 208t211.5 81q113 0 189 -58l-23 -123q-65 43 -160 43q-66 0 -111.5 -40t-45.5 -111q0 -73 45.5 -116.5t111.5 -43.5q85 0 170 60l-30 -154q-72 -39 -146 -39q-77 0 -145.5 34.5t-113 103t-44.5 155.5z" />
<glyph unicode="&#xaa;" horiz-adv-x="765" d="M72 793q0 92 72 158.5t167 74.5l178 16v41q0 48 -33 78.5t-102 30.5q-117 0 -209 -62l-34 138q100 65 251 65q131 0 212 -70.5t81 -199.5v-293q0 -91 95 -106l-111 -109q-80 15 -115 86q-77 -86 -205 -86q-110 0 -178.5 70t-68.5 168zM231 780q0 -39 27.5 -68.5 t67.5 -29.5q60 0 111.5 49t51.5 121v61l-151 -16q-50 -6 -78.5 -40t-28.5 -77zM281 309q0 27 40.5 68t65.5 41q28 0 67.5 -40.5t39.5 -68.5q0 -25 -40 -65.5t-67 -40.5q-25 0 -65.5 40.5t-40.5 65.5z" />
<glyph unicode="&#xab;" horiz-adv-x="901" d="M-2 567q198 144 324 351l106 -107q-63 -123 -184 -244q125 -125 184 -243l-106 -107q-131 216 -324 350zM426 567q202 146 326 351l106 -107q-72 -135 -184 -244q116 -113 184 -243l-106 -107q-129 213 -326 350z" />
<glyph unicode="&#xac;" horiz-adv-x="1024" d="M82 487v160h819v-371h-164v211h-655z" />
<glyph unicode="&#xad;" horiz-adv-x="675" d="M82 487v160h512v-160h-512z" />
<glyph unicode="&#xae;" horiz-adv-x="983" d="M72 918q0 181 120 298t300 117q177 0 298 -117t121 -298t-121 -298.5t-298 -117.5q-180 0 -300 117t-120 299zM162 918q0 -146 94 -239t236 -93q140 0 232.5 93t92.5 239t-92.5 238.5t-232.5 92.5q-142 0 -236 -92.5t-94 -238.5zM334 662v512h160q66 0 117 -43.5 t51 -112.5q0 -86 -74 -129l121 -174l-82 -56l-133 203h-62v-200h-98zM432 948h47q39 0 61.5 19t22.5 51t-22 50.5t-62 18.5h-47v-139z" />
<glyph unicode="&#xaf;" horiz-adv-x="819" d="M221 1075v158h377v-158h-377z" />
<glyph unicode="&#xb0;" horiz-adv-x="509" d="M45 1130q0 86 62.5 147.5t148.5 61.5t148.5 -61.5t62.5 -147.5t-62 -147t-149 -61t-149 61t-62 147zM150 1130q0 -47 29.5 -76.5t76.5 -29.5t76.5 29.5t29.5 76.5t-29.5 77t-76.5 30t-76.5 -30t-29.5 -77z" />
<glyph unicode="&#xb1;" horiz-adv-x="1812" d="M20 778v150h158v69q0 205 106.5 321t295.5 116q127 0 219 -54l-37 -155q-83 53 -203 53q-91 0 -142.5 -70.5t-51.5 -169.5v-110h458v39q0 235 132.5 367t344.5 132q195 0 314 -92v-1124q0 -61 38.5 -103.5t86.5 -50.5l-127 -127q-28 7 -55.5 22.5t-59 44t-51 77.5 t-19.5 112v1061q-54 25 -155 25q-112 0 -187 -81.5t-75 -221.5v-80h207l-33 -150h-174v-778h-187v778h-458v-778h-187v778h-158z" />
<glyph unicode="&#xb2;" horiz-adv-x="759" d="M68 510v33q405 338 405 518q0 76 -47.5 119t-132.5 43q-98 0 -195 -56l-24 111q88 55 219 55q152 0 231.5 -74t79.5 -202q0 -94 -71.5 -209t-196.5 -227h311v-111h-579z" />
<glyph unicode="&#xb3;" horiz-adv-x="638" d="M70 662q78 -54 180 -54q70 0 122 46t52 118q0 59 -44 98t-112 39q-20 0 -41 -6l-24 111q62 11 107.5 48t45.5 77q0 37 -29 60.5t-71 23.5q-73 0 -147 -41l-25 110q77 41 172 41q104 0 167.5 -52t63.5 -142q0 -48 -27 -88.5t-69 -59.5q63 -17 113.5 -76t50.5 -143 q0 -115 -81 -194.5t-224 -79.5q-94 0 -152 37z" />
<glyph unicode="&#xb4;" horiz-adv-x="819" d="M180 1153q107 31 217 86.5t189 128.5l39 -168q-81 -56 -156.5 -86.5t-185.5 -60.5z" />
<glyph unicode="&#xb5;" horiz-adv-x="1126" d="M80 0v928h967v-928h-967zM139 59h387q-78 33 -123 125l-264 555v-680zM201 786l493 -348q-86 -34 -136 -93t-50 -116q0 -111 106 -170h373v727h-786z" />
<glyph unicode="&#xb6;" horiz-adv-x="901" d="M80 942q0 119 59.5 206t152 128t204.5 41h348v-152h-144v-1265q0 -139 -82 -243.5t-188 -129.5l-119 117q201 45 201 270v657h-18q-82 0 -155.5 24t-132 69t-92.5 117t-34 161z" />
<glyph unicode="&#xb7;" horiz-adv-x="403" d="M76 555q0 29 47 76t78 47t78 -47t47 -76q0 -31 -47 -78t-78 -47t-78 47t-47 78z" />
<glyph unicode="&#xb8;" horiz-adv-x="819" d="M225 -422l23 105q62 -45 139 -45q38 0 66 27t28 67q0 43 -32.5 70.5t-75.5 27.5q-49 0 -66 -6l33 176h78l-8 -55q75 -2 137.5 -60.5t62.5 -146.5q0 -98 -68 -154.5t-157 -56.5q-84 0 -160 51z" />
<glyph unicode="&#xb9;" horiz-adv-x="550" d="M76 1184l28 123l271 26v-823h-131v690z" />
<glyph unicode="&#xba;" horiz-adv-x="931" d="M68 944q0 171 114 280t285 109t284 -109t113 -280q0 -170 -113.5 -279.5t-283.5 -109.5q-171 0 -285 109.5t-114 279.5zM231 944q0 -110 69 -181t167 -71q96 0 164.5 71t68.5 181q0 111 -68 181.5t-165 70.5q-98 0 -167 -70.5t-69 -181.5zM358 309q0 27 41 68t66 41 q28 0 67 -40.5t39 -68.5q0 -25 -39.5 -65.5t-66.5 -40.5q-25 0 -66 40.5t-41 65.5z" />
<glyph unicode="&#xbb;" horiz-adv-x="901" d="M43 324q62 124 184 243q-118 115 -184 244l107 107q125 -206 325 -351q-195 -136 -325 -350zM473 324q61 122 182 243q-117 117 -182 244l107 107q124 -205 323 -351q-193 -137 -323 -350z" />
<glyph unicode="&#xbc;" horiz-adv-x="1521" d="M76 1184l28 123l271 26v-823h-131v690zM137 27l1065 1312l72 -59l-1063 -1313zM795 352l387 461h116v-463h109v-110h-109v-240h-131v240h-344zM940 350h227v193q0 38 7 96l-5 2q-26 -46 -71 -100z" />
<glyph unicode="&#xbd;" horiz-adv-x="1634" d="M76 1184l28 123l271 26v-823h-131v690zM137 27l1065 1312l72 -59l-1063 -1313zM958 0v33q406 339 406 518q0 76 -47.5 119t-132.5 43q-98 0 -195 -56l-24 111q88 55 219 55q152 0 231.5 -74t79.5 -202q0 -94 -71.5 -209t-196.5 -227h311v-111h-580z" />
<glyph unicode="&#xbe;" horiz-adv-x="1576" d="M70 662q78 -54 180 -54q70 0 122 46t52 118q0 59 -44 98t-112 39q-20 0 -41 -6l-24 111q62 11 107.5 48t45.5 77q0 37 -29 60.5t-71 23.5q-73 0 -147 -41l-25 110q77 41 172 41q104 0 167.5 -52t63.5 -142q0 -48 -27 -88.5t-69 -59.5q63 -17 113.5 -76t50.5 -143 q0 -115 -81 -194.5t-224 -79.5q-94 0 -152 37zM219 27l1065 1312l72 -59l-1063 -1313zM877 352l387 461h116v-463h109v-110h-109v-240h-131v240h-344zM1022 350h227v193q0 47 6 96l-4 2q-26 -46 -71 -100z" />
<glyph unicode="&#xbf;" horiz-adv-x="802" d="M82 260q0 95 46.5 175t143.5 186q105 113 105 241q0 88 -6 119l153 -35q15 -66 15 -108q0 -93 -34 -181.5t-95 -152.5q-70 -73 -102 -131.5t-32 -134.5q0 -68 55.5 -125.5t147.5 -57.5q74 0 130.5 26t111.5 77l37 -170q-47 -45 -119.5 -71t-157.5 -26q-177 0 -288 99 t-111 270zM313 1208q0 31 46.5 78t78.5 47q31 0 78 -47t47 -78q0 -29 -47 -76t-78 -47q-32 0 -78.5 46.5t-46.5 76.5z" />
<glyph unicode="&#xc0;" horiz-adv-x="1267" d="M41 0l557 1325h72l557 -1325h-201l-141 338h-508l-141 -338h-195zM340 1610l41 168q78 -73 187 -128.5t216 -86.5l-102 -101q-109 29 -184.5 60.5t-157.5 87.5zM444 496h373l-129 319q-28 66 -55 160h-4q-17 -67 -56 -160z" />
<glyph unicode="&#xc1;" horiz-adv-x="1267" d="M41 0l557 1325h72l557 -1325h-201l-141 338h-508l-141 -338h-195zM444 496h373l-129 319q-28 66 -55 160h-4q-17 -67 -56 -160zM475 1563q107 31 217 86.5t189 128.5l39 -168q-82 -56 -157.5 -87.5t-184.5 -60.5z" />
<glyph unicode="&#xc2;" horiz-adv-x="1267" d="M41 0l557 1325h72l557 -1325h-201l-141 338h-508l-141 -338h-195zM367 1559q149 61 270 231q117 -169 268 -231l-98 -97q-105 49 -170 119q-67 -70 -172 -119zM444 496h373l-129 319q-28 66 -55 160h-4q-17 -67 -56 -160z" />
<glyph unicode="&#xc3;" horiz-adv-x="1267" d="M41 0l557 1325h72l557 -1325h-201l-141 338h-508l-141 -338h-195zM344 1501l37 148q85 47 144 70t134 28l31 -129q111 17 232 88l-37 -143q-72 -48 -135.5 -71.5t-143.5 -29.5l-31 125q-111 -15 -231 -86zM444 496h373l-129 319q-28 66 -55 160h-4q-17 -67 -56 -160z" />
<glyph unicode="&#xc4;" horiz-adv-x="1267" d="M41 0l557 1325h72l557 -1325h-201l-141 338h-508l-141 -338h-195zM375 1569q0 27 40.5 67.5t65.5 40.5q28 0 67.5 -40t39.5 -68q0 -25 -40 -66t-67 -41q-25 0 -65.5 41t-40.5 66zM444 496h373l-129 319q-28 66 -55 160h-4q-17 -67 -56 -160zM688 1569q0 28 39.5 68 t67.5 40t67 -40t39 -68q0 -25 -39.5 -66t-66.5 -41t-67 41t-40 66z" />
<glyph unicode="&#xc5;" horiz-adv-x="1267" d="M41 0l557 1325h72l557 -1325h-201l-141 338h-508l-141 -338h-195zM401 1673q0 95 69.5 163.5t164.5 68.5t164 -68.5t69 -163.5t-69 -163t-164 -68q-96 0 -165 68t-69 163zM444 496h373l-129 319q-28 66 -55 160h-4q-17 -67 -56 -160zM516 1673q0 -53 33 -86t86 -33t86 33 t33 86t-33 86t-86 33t-86 -33t-33 -86z" />
<glyph unicode="&#xc6;" horiz-adv-x="1667" d="M20 0l758 1307h774v-170h-505v-396h423v-170h-423v-401h577v-170h-774v338h-434l-197 -338h-199zM498 496h352v428q0 46 1 110.5t1 104.5l-4 2q-48 -115 -109 -221z" />
<glyph unicode="&#xc7;" horiz-adv-x="1228" d="M82 653q0 131 42 244t112 191.5t161.5 135t190 83t198.5 26.5q232 0 385 -86l-34 -172q-53 34 -143.5 60t-184.5 26q-98 0 -190.5 -32t-168 -93t-121.5 -160.5t-46 -222.5q0 -98 29.5 -182t80 -142.5t118 -100t143 -61.5t155.5 -20q223 0 360 82l-41 -190 q-64 -33 -143 -48.5t-203 -15.5l-4 -30q76 -2 138.5 -60.5t62.5 -146.5q0 -98 -68 -154.5t-157 -56.5q-84 0 -160 51l22 105q62 -45 140 -45q38 0 66 27t28 67q0 43 -33 70.5t-76 27.5q-48 0 -65 -6l29 156q-94 11 -183 44t-169 91t-140 134t-95.5 180.5t-35.5 223.5z" />
<glyph unicode="&#xc8;" horiz-adv-x="952" d="M133 0v1307h705v-170h-506v-396h424v-170h-424v-401h577v-170h-776zM211 1610l41 168q78 -73 187 -128.5t216 -86.5l-102 -101q-109 29 -184.5 60.5t-157.5 87.5z" />
<glyph unicode="&#xc9;" horiz-adv-x="952" d="M133 0v1307h705v-170h-506v-396h424v-170h-424v-401h577v-170h-776zM350 1563q107 31 217 86.5t189 128.5l39 -168q-82 -56 -157.5 -87.5t-184.5 -60.5z" />
<glyph unicode="&#xca;" horiz-adv-x="952" d="M133 0v1307h705v-170h-506v-396h424v-170h-424v-401h577v-170h-776zM246 1559q149 61 270 231q117 -169 268 -231l-98 -97q-105 49 -170 119q-67 -70 -172 -119z" />
<glyph unicode="&#xcb;" horiz-adv-x="952" d="M133 0v1307h705v-170h-506v-396h424v-170h-424v-401h577v-170h-776zM244 1569q0 27 40.5 67.5t65.5 40.5q28 0 67.5 -40t39.5 -68q0 -25 -40 -66t-67 -41q-25 0 -65.5 41t-40.5 66zM557 1569q0 28 39.5 68t67.5 40t67 -40t39 -68q0 -25 -39.5 -66t-66.5 -41t-67 41 t-40 66z" />
<glyph unicode="&#xcc;" horiz-adv-x="526" d="M0 1610l41 168q78 -73 187 -128.5t216 -86.5l-102 -101q-109 29 -184.5 60.5t-157.5 87.5zM164 0v1307h198v-1307h-198z" />
<glyph unicode="&#xcd;" horiz-adv-x="526" d="M82 1563q107 31 216.5 86.5t188.5 128.5l39 -168q-82 -56 -157.5 -87.5t-184.5 -60.5zM164 0v1307h198v-1307h-198z" />
<glyph unicode="&#xce;" horiz-adv-x="526" d="M-6 1559q149 61 270 231q117 -169 268 -231l-98 -97q-105 49 -170 119q-67 -70 -172 -119zM164 0v1307h198v-1307h-198z" />
<glyph unicode="&#xcf;" horiz-adv-x="526" d="M2 1569q0 27 41 67.5t66 40.5q28 0 67 -40t39 -68q0 -25 -39.5 -66t-66.5 -41q-25 0 -66 41t-41 66zM164 0v1307h198v-1307h-198zM315 1569q0 28 39.5 68t67.5 40t67 -40t39 -68q0 -25 -39.5 -66t-66.5 -41t-67 41t-40 66z" />
<glyph unicode="&#xd0;" horiz-adv-x="1343" d="M-6 592v149h160v566h401q110 0 213.5 -27t193 -82t156.5 -132t105.5 -183.5t38.5 -229.5q0 -153 -59 -279t-158 -206.5t-225.5 -124t-264.5 -43.5h-401v592h-160zM350 168h170q113 0 209 29.5t170.5 87.5t117 152.5t42.5 215.5t-42.5 215.5t-117 152.5t-170.5 88t-209 30 h-170v-398h258l-30 -149h-228v-424z" />
<glyph unicode="&#xd1;" horiz-adv-x="1437" d="M133 0v1307h137l561 -615q199 -220 275 -313l4 2q-4 100 -4 307v619h199v-1336h-60l-612 670q-109 118 -301 344l-4 -2q4 -119 4 -328v-655h-199zM428 1501l37 148q85 47 144 70t134 28l31 -129q111 17 232 88l-37 -143q-72 -48 -135.5 -71.5t-143.5 -29.5l-31 125 q-111 -15 -231 -86z" />
<glyph unicode="&#xd2;" d="M82 655q0 123 38.5 231.5t105 189t154.5 139.5t189 88.5t205 29.5t205 -29.5t189 -88.5t154.5 -139.5t105 -189t38.5 -231.5q0 -124 -38.5 -233t-105 -190t-154.5 -139.5t-188.5 -88t-205.5 -29.5t-205.5 29.5t-188.5 88t-154.5 139.5t-105 190t-38.5 233zM283 655 q0 -117 42.5 -215t112.5 -161t157 -97.5t179 -34.5q72 0 142.5 21.5t133.5 64.5t111.5 103t76.5 142.5t28 176.5q0 117 -43 215t-114 160.5t-157.5 96.5t-177.5 34q-92 0 -179 -34t-157 -96.5t-112.5 -160.5t-42.5 -215zM465 1610l41 168q78 -73 187 -128.5t216 -86.5 l-102 -101q-109 29 -184.5 60.5t-157.5 87.5z" />
<glyph unicode="&#xd3;" d="M82 655q0 123 38.5 231.5t105 189t154.5 139.5t189 88.5t205 29.5t205 -29.5t189 -88.5t154.5 -139.5t105 -189t38.5 -231.5q0 -124 -38.5 -233t-105 -190t-154.5 -139.5t-188.5 -88t-205.5 -29.5t-205.5 29.5t-188.5 88t-154.5 139.5t-105 190t-38.5 233zM283 655 q0 -117 42.5 -215t112.5 -161t157 -97.5t179 -34.5q72 0 142.5 21.5t133.5 64.5t111.5 103t76.5 142.5t28 176.5q0 117 -43 215t-114 160.5t-157.5 96.5t-177.5 34q-92 0 -179 -34t-157 -96.5t-112.5 -160.5t-42.5 -215zM608 1563q107 31 217 86.5t189 128.5l39 -168 q-82 -56 -157.5 -87.5t-184.5 -60.5z" />
<glyph unicode="&#xd4;" d="M82 655q0 123 38.5 231.5t105 189t154.5 139.5t189 88.5t205 29.5t205 -29.5t189 -88.5t154.5 -139.5t105 -189t38.5 -231.5q0 -124 -38.5 -233t-105 -190t-154.5 -139.5t-188.5 -88t-205.5 -29.5t-205.5 29.5t-188.5 88t-154.5 139.5t-105 190t-38.5 233zM283 655 q0 -117 42.5 -215t112.5 -161t157 -97.5t179 -34.5q72 0 142.5 21.5t133.5 64.5t111.5 103t76.5 142.5t28 176.5q0 117 -43 215t-114 160.5t-157.5 96.5t-177.5 34q-92 0 -179 -34t-157 -96.5t-112.5 -160.5t-42.5 -215zM508 1559q149 61 270 231q117 -168 269 -231l-99 -97 q-105 49 -170 119q-67 -70 -172 -119z" />
<glyph unicode="&#xd5;" d="M82 655q0 123 38.5 231.5t105 189t154.5 139.5t189 88.5t205 29.5t205 -29.5t189 -88.5t154.5 -139.5t105 -189t38.5 -231.5q0 -124 -38.5 -233t-105 -190t-154.5 -139.5t-188.5 -88t-205.5 -29.5t-205.5 29.5t-188.5 88t-154.5 139.5t-105 190t-38.5 233zM283 655 q0 -117 42.5 -215t112.5 -161t157 -97.5t179 -34.5q72 0 142.5 21.5t133.5 64.5t111.5 103t76.5 142.5t28 176.5q0 117 -43 215t-114 160.5t-157.5 96.5t-177.5 34q-92 0 -179 -34t-157 -96.5t-112.5 -160.5t-42.5 -215zM475 1501l37 148q85 47 144.5 70t134.5 28l30 -129 q111 17 232 88l-37 -143q-72 -48 -135.5 -71.5t-143.5 -29.5l-30 125q-112 -15 -232 -86z" />
<glyph unicode="&#xd6;" d="M82 655q0 123 38.5 231.5t105 189t154.5 139.5t189 88.5t205 29.5t205 -29.5t189 -88.5t154.5 -139.5t105 -189t38.5 -231.5q0 -124 -38.5 -233t-105 -190t-154.5 -139.5t-188.5 -88t-205.5 -29.5t-205.5 29.5t-188.5 88t-154.5 139.5t-105 190t-38.5 233zM283 655 q0 -117 42.5 -215t112.5 -161t157 -97.5t179 -34.5q72 0 142.5 21.5t133.5 64.5t111.5 103t76.5 142.5t28 176.5q0 117 -43 215t-114 160.5t-157.5 96.5t-177.5 34q-92 0 -179 -34t-157 -96.5t-112.5 -160.5t-42.5 -215zM514 1569q0 27 41 67.5t66 40.5q28 0 67 -40t39 -68 q0 -25 -39.5 -66t-66.5 -41q-25 0 -66 41t-41 66zM827 1569q0 28 39.5 68t67.5 40t67 -40t39 -68q0 -25 -39.5 -66t-66.5 -41t-67 41t-40 66z" />
<glyph unicode="&#xd7;" horiz-adv-x="958" d="M152 313l243 244l-241 242l88 88l241 -244l242 242l86 -86l-242 -242l244 -244l-86 -86l-244 242l-243 -244z" />
<glyph unicode="&#xd8;" d="M82 655q0 123 38.5 231.5t105 189t154.5 139.5t189 88.5t205 29.5q211 0 385 -112l121 151l90 -76l-119 -145q215 -198 215 -496q0 -124 -38.5 -233t-105 -190t-154.5 -139.5t-188.5 -88t-205.5 -29.5q-206 0 -383 111l-121 -152l-90 76l117 146q-101 91 -158 218.5 t-57 280.5zM283 655q0 -213 133 -352l628 776q-127 82 -270 82q-92 0 -179 -34t-157 -96.5t-112.5 -160.5t-42.5 -215zM506 227q129 -80 268 -80q72 0 142.5 21.5t133.5 64.5t111.5 103t76.5 142.5t28 176.5q0 210 -131 351z" />
<glyph unicode="&#xd9;" horiz-adv-x="1331" d="M133 461v846h199v-826q0 -151 85.5 -240t250.5 -89q166 0 252 89t86 240v826h192v-846q0 -224 -149 -355t-383 -131t-383.5 131t-149.5 355zM356 1610l41 168q78 -73 187.5 -128.5t216.5 -86.5l-103 -101q-109 29 -184.5 60.5t-157.5 87.5z" />
<glyph unicode="&#xda;" horiz-adv-x="1331" d="M133 461v846h199v-826q0 -151 85.5 -240t250.5 -89q166 0 252 89t86 240v826h192v-846q0 -224 -149 -355t-383 -131t-383.5 131t-149.5 355zM528 1563q107 31 217 86.5t189 128.5l39 -168q-82 -56 -157.5 -87.5t-184.5 -60.5z" />
<glyph unicode="&#xdb;" horiz-adv-x="1331" d="M133 461v846h199v-826q0 -151 85.5 -240t250.5 -89q166 0 252 89t86 240v826h192v-846q0 -224 -149 -355t-383 -131t-383.5 131t-149.5 355zM395 1559q150 62 271 231q117 -169 268 -231l-98 -97q-105 49 -170 119q-67 -70 -172 -119z" />
<glyph unicode="&#xdc;" horiz-adv-x="1331" d="M133 461v846h199v-826q0 -151 85.5 -240t250.5 -89q166 0 252 89t86 240v826h192v-846q0 -224 -149 -355t-383 -131t-383.5 131t-149.5 355zM408 1569q0 27 40.5 67.5t65.5 40.5q28 0 67.5 -40t39.5 -68q0 -25 -40 -66t-67 -41q-25 0 -65.5 41t-40.5 66zM721 1569 q0 28 39 68t67 40t67.5 -40t39.5 -68q0 -25 -40 -66t-67 -41t-66.5 41t-39.5 66z" />
<glyph unicode="&#xdd;" horiz-adv-x="1236" d="M20 1307h218l262 -369q42 -59 123 -184h4q22 34 125 184l262 369h203l-502 -705v-602h-195v602zM453 1563q107 31 216.5 86.5t188.5 128.5l39 -168q-82 -56 -157.5 -87.5t-184.5 -60.5z" />
<glyph unicode="&#xde;" horiz-adv-x="956" d="M133 0v1307h197v-152h196q71 0 139.5 -23t126 -67t93 -116t35.5 -161t-35.5 -161t-93 -115.5t-126 -66.5t-139.5 -23h-196v-422h-197zM330 590h162q95 0 160 50.5t65 147.5q0 96 -65.5 147.5t-159.5 51.5h-162v-397z" />
<glyph unicode="&#xdf;" horiz-adv-x="1095" d="M133 0v985q0 243 108 362t281 119q81 0 150 -26t123 -77.5t85 -134.5t31 -190q0 -106 -34 -223q-279 0 -279 -125q0 -43 31.5 -70t103.5 -53q148 -54 219.5 -125.5t71.5 -187.5q0 -119 -88 -198t-250 -79q-78 0 -151 20t-117 50v178q125 -90 272 -90q65 0 106.5 31.5 t41.5 79.5t-33 79.5t-100 55.5q-145 54 -216 124.5t-71 178.5q0 116 85 191t210 75q16 70 16 117q0 96 -56.5 170t-150.5 74q-96 0 -149.5 -79.5t-53.5 -197.5v-1034h-186z" />
<glyph unicode="&#xe0;" horiz-adv-x="933" d="M72 262q0 128 89 207t216 90l217 21v59q0 68 -43.5 110t-136.5 42q-144 0 -256 -74l-37 153q122 80 303 80q160 0 258 -88t98 -248v-374q0 -61 29.5 -98.5t75.5 -45.5l-119 -119q-47 10 -83.5 43t-51.5 76q-91 -119 -260 -119q-133 0 -216 84t-83 201zM168 1208l35 144 q124 -119 342 -185l-86 -84q-92 24 -156.5 50.5t-134.5 74.5zM250 260q0 -50 37 -87.5t92 -37.5q77 0 146 62.5t69 146.5v82l-184 -16q-78 -7 -119 -50.5t-41 -99.5z" />
<glyph unicode="&#xe1;" horiz-adv-x="933" d="M72 262q0 128 89 207t216 90l217 21v59q0 68 -43.5 110t-136.5 42q-144 0 -256 -74l-37 153q122 80 303 80q160 0 258 -88t98 -248v-374q0 -61 29.5 -98.5t75.5 -45.5l-119 -119q-47 10 -83.5 43t-51.5 76q-91 -119 -260 -119q-133 0 -216 84t-83 201zM250 260 q0 -50 37 -87.5t92 -37.5q77 0 146 62.5t69 146.5v82l-184 -16q-78 -7 -119 -50.5t-41 -99.5zM268 1167q217 66 344 185l33 -144q-69 -48 -133.5 -74.5t-157.5 -50.5z" />
<glyph unicode="&#xe2;" horiz-adv-x="933" d="M72 262q0 128 89 207t216 90l217 21v59q0 68 -43.5 110t-136.5 42q-144 0 -256 -74l-37 153q122 80 303 80q160 0 258 -88t98 -248v-374q0 -61 29.5 -98.5t75.5 -45.5l-119 -119q-47 10 -83.5 43t-51.5 76q-91 -119 -260 -119q-133 0 -216 84t-83 201zM197 1165 q129 55 229 197q96 -141 227 -197l-82 -82q-92 44 -145 101q-54 -56 -145 -101zM250 260q0 -50 37 -87.5t92 -37.5q77 0 146 62.5t69 146.5v82l-184 -16q-78 -7 -119 -50.5t-41 -99.5z" />
<glyph unicode="&#xe3;" horiz-adv-x="933" d="M72 262q0 128 89 207t216 90l217 21v59q0 68 -43.5 110t-136.5 42q-144 0 -256 -74l-37 153q122 80 303 80q160 0 258 -88t98 -248v-374q0 -61 29.5 -98.5t75.5 -45.5l-119 -119q-47 10 -83.5 43t-51.5 76q-91 -119 -260 -119q-133 0 -216 84t-83 201zM203 1116l30 125 q74 41 124.5 60.5t113.5 23.5l27 -111q99 19 196 76l-32 -121q-61 -42 -114.5 -62t-121.5 -24l-27 107q-103 -16 -196 -74zM250 260q0 -50 37 -87.5t92 -37.5q77 0 146 62.5t69 146.5v82l-184 -16q-78 -7 -119 -50.5t-41 -99.5z" />
<glyph unicode="&#xe4;" horiz-adv-x="933" d="M72 262q0 128 89 207t216 90l217 21v59q0 68 -43.5 110t-136.5 42q-144 0 -256 -74l-37 153q122 80 303 80q160 0 258 -88t98 -248v-374q0 -61 29.5 -98.5t75.5 -45.5l-119 -119q-47 10 -83.5 43t-51.5 76q-91 -119 -260 -119q-133 0 -216 84t-83 201zM209 1174 q0 23 35 57.5t57 34.5q23 0 56.5 -34.5t33.5 -57.5q0 -22 -33.5 -56.5t-56.5 -34.5q-22 0 -57 34.5t-35 56.5zM250 260q0 -50 37 -87.5t92 -37.5q77 0 146 62.5t69 146.5v82l-184 -16q-78 -7 -119 -50.5t-41 -99.5zM475 1174q0 24 34 58t58 34q23 0 56.5 -34.5t33.5 -57.5 q0 -22 -33.5 -56.5t-56.5 -34.5q-24 0 -58 34.5t-34 56.5z" />
<glyph unicode="&#xe5;" horiz-adv-x="933" d="M72 262q0 128 89 207t216 90l217 21v59q0 68 -43.5 110t-136.5 42q-144 0 -256 -74l-37 153q122 80 303 80q160 0 258 -88t98 -248v-374q0 -61 29.5 -98.5t75.5 -45.5l-119 -119q-47 10 -83.5 43t-51.5 76q-91 -119 -260 -119q-133 0 -216 84t-83 201zM229 1262 q0 81 58.5 138.5t140.5 57.5t140.5 -57.5t58.5 -138.5q0 -80 -59 -138.5t-140 -58.5t-140 58.5t-59 138.5zM250 260q0 -50 37 -87.5t92 -37.5q77 0 146 62.5t69 146.5v82l-184 -16q-78 -7 -119 -50.5t-41 -99.5zM328 1262q0 -43 28 -72t72 -29t72 29t28 72q0 44 -28 73 t-72 29t-72 -29t-28 -73z" />
<glyph unicode="&#xe6;" horiz-adv-x="1527" d="M72 254q0 134 85 206t226 85l211 20v74q0 68 -43.5 110t-136.5 42q-144 0 -256 -74l-37 153q122 80 303 80q100 0 179 -36t124 -105q66 68 153 104.5t175 36.5q93 0 170.5 -30.5t127 -81t76.5 -113t27 -127.5q0 -46 -6 -76l-104 -104h-558q2 -45 24 -92t60.5 -89 t102.5 -69t141 -27q163 0 297 95l-47 -199q-113 -60 -274 -60q-113 0 -213.5 45.5t-171.5 127.5q-59 -86 -145.5 -129.5t-184.5 -43.5q-141 0 -223 80.5t-82 196.5zM250 250q0 -47 37 -81t92 -34q77 0 146 62.5t69 146.5v68l-178 -17q-166 -14 -166 -145zM801 569h465 q2 8 2 25q0 74 -57.5 135.5t-145.5 61.5q-90 0 -168.5 -63.5t-95.5 -158.5z" />
<glyph unicode="&#xe7;" horiz-adv-x="937" d="M72 463q0 111 43 204.5t113.5 154t160.5 94.5t186 34q172 0 297 -69l-34 -164q-109 69 -250 69q-134 0 -231 -89t-97 -234q0 -96 48 -171t123 -113t161 -38q126 0 266 66l-39 -182q-53 -26 -126 -38t-130 -10l-4 -24q64 -2 117 -52t53 -124q0 -84 -57 -131t-133 -47 q-74 0 -138 43l21 88q51 -37 119 -37q32 0 56 23t24 57q0 35 -28 58.5t-65 23.5q-40 0 -57 -5l27 134q-86 13 -162 52t-135.5 98.5t-94 144.5t-34.5 184z" />
<glyph unicode="&#xe8;" horiz-adv-x="1005" d="M72 463q0 113 41.5 208t108.5 154.5t147.5 92t162.5 32.5q93 0 170.5 -30.5t127 -81t77 -113t27.5 -127.5q0 -46 -6 -76l-105 -104h-559q2 -45 24 -92t61 -89t103.5 -69t141.5 -27q163 0 297 95l-47 -199q-113 -60 -275 -60q-132 0 -245 60.5t-182.5 173t-69.5 252.5z M276 569h467q2 8 2 25q0 74 -57 135.5t-145 61.5q-90 0 -169.5 -63.5t-97.5 -158.5zM303 1208l35 144q124 -119 342 -185l-86 -84q-92 24 -156.5 50.5t-134.5 74.5z" />
<glyph unicode="&#xe9;" horiz-adv-x="1005" d="M72 463q0 113 41.5 208t108.5 154.5t147.5 92t162.5 32.5q93 0 170.5 -30.5t127 -81t77 -113t27.5 -127.5q0 -46 -6 -76l-105 -104h-559q2 -45 24 -92t61 -89t103.5 -69t141.5 -27q163 0 297 95l-47 -199q-113 -60 -275 -60q-132 0 -245 60.5t-182.5 173t-69.5 252.5z M276 569h467q2 8 2 25q0 74 -57 135.5t-145 61.5q-90 0 -169.5 -63.5t-97.5 -158.5zM395 1167q217 66 344 185l33 -144q-69 -48 -133.5 -74.5t-157.5 -50.5z" />
<glyph unicode="&#xea;" horiz-adv-x="1005" d="M72 463q0 113 41.5 208t108.5 154.5t147.5 92t162.5 32.5q93 0 170.5 -30.5t127 -81t77 -113t27.5 -127.5q0 -46 -6 -76l-105 -104h-559q2 -45 24 -92t61 -89t103.5 -69t141.5 -27q163 0 297 95l-47 -199q-113 -60 -275 -60q-132 0 -245 60.5t-182.5 173t-69.5 252.5z M276 569h467q2 8 2 25q0 74 -57 135.5t-145 61.5q-90 0 -169.5 -63.5t-97.5 -158.5zM311 1165q130 55 230 197q96 -141 227 -197l-82 -82q-92 44 -145 101q-53 -55 -146 -101z" />
<glyph unicode="&#xeb;" horiz-adv-x="1005" d="M72 463q0 113 41.5 208t108.5 154.5t147.5 92t162.5 32.5q93 0 170.5 -30.5t127 -81t77 -113t27.5 -127.5q0 -46 -6 -76l-105 -104h-559q2 -45 24 -92t61 -89t103.5 -69t141.5 -27q163 0 297 95l-47 -199q-113 -60 -275 -60q-132 0 -245 60.5t-182.5 173t-69.5 252.5z M276 569h467q2 8 2 25q0 74 -57 135.5t-145 61.5q-90 0 -169.5 -63.5t-97.5 -158.5zM311 1174q0 23 35 57.5t57 34.5q23 0 57 -34.5t34 -57.5q0 -22 -34 -56.5t-57 -34.5q-22 0 -57 34.5t-35 56.5zM578 1174q0 24 34 58t58 34q23 0 56.5 -34.5t33.5 -57.5q0 -22 -33.5 -56.5 t-56.5 -34.5q-24 0 -58 34.5t-34 56.5z" />
<glyph unicode="&#xec;" horiz-adv-x="495" d="M0 1208l35 144q124 -119 342 -185l-86 -84q-92 24 -156.5 50.5t-134.5 74.5zM154 0v928h188v-928h-188z" />
<glyph unicode="&#xed;" horiz-adv-x="495" d="M119 1167q217 66 344 185l33 -144q-69 -48 -133.5 -74.5t-157.5 -50.5zM154 0v928h188v-928h-188z" />
<glyph unicode="&#xee;" horiz-adv-x="495" d="M20 1165q130 55 230 197q96 -141 227 -197l-82 -82q-92 44 -145 101q-53 -55 -146 -101zM154 0v928h188v-928h-188z" />
<glyph unicode="&#xef;" horiz-adv-x="495" d="M23 1174q0 23 35 57.5t57 34.5q23 0 56.5 -34.5t33.5 -57.5q0 -22 -33.5 -56.5t-56.5 -34.5q-22 0 -57 34.5t-35 56.5zM154 0v928h188v-928h-188zM289 1174q0 24 34 58t58 34q23 0 56.5 -34.5t33.5 -57.5q0 -22 -33.5 -56.5t-56.5 -34.5q-24 0 -58 34.5t-34 56.5z" />
<glyph unicode="&#xf0;" horiz-adv-x="1021" d="M72 401q0 148 89.5 263t227.5 159q112 34 207 49l-98 236l-174 -70l-56 140l170 69l-88 211h195l59 -145l158 63l55 -139l-153 -63l243 -580q13 -31 23 -80t10 -86q0 -208 -124 -329.5t-308 -121.5q-187 0 -311.5 121t-124.5 303zM258 401q0 -113 70.5 -186.5 t175.5 -73.5q107 0 178.5 78.5t71.5 206.5q0 78 -99 293q-92 -11 -180 -39q-104 -34 -160.5 -106t-56.5 -173z" />
<glyph unicode="&#xf1;" horiz-adv-x="1036" d="M113 0v928h163l9 -92q57 61 119 87.5t167 26.5q155 0 254 -91.5t99 -244.5v-614h-187v596q0 81 -53 138t-162 57q-106 0 -164.5 -58t-58.5 -137v-596h-186zM266 1116l31 125q74 41 124.5 60.5t113.5 23.5l26 -111q100 19 197 76l-33 -121q-61 -42 -114.5 -62t-121.5 -24 l-26 107q-104 -17 -197 -74z" />
<glyph unicode="&#xf2;" horiz-adv-x="1128" d="M72 463q0 214 141.5 350.5t351.5 136.5t351 -136.5t141 -350.5q0 -141 -65.5 -252.5t-177.5 -172.5t-249 -61t-249.5 61t-178 172.5t-65.5 252.5zM260 463q0 -141 89.5 -231.5t215.5 -90.5q125 0 214 90.5t89 231.5q0 142 -89 232.5t-214 90.5q-127 0 -216 -90t-89 -233z M313 1208l35 144q124 -119 342 -185l-86 -84q-92 24 -156.5 50.5t-134.5 74.5z" />
<glyph unicode="&#xf3;" horiz-adv-x="1128" d="M72 463q0 214 141.5 350.5t351.5 136.5t351 -136.5t141 -350.5q0 -141 -65.5 -252.5t-177.5 -172.5t-249 -61t-249.5 61t-178 172.5t-65.5 252.5zM260 463q0 -141 89.5 -231.5t215.5 -90.5q125 0 214 90.5t89 231.5q0 142 -89 232.5t-214 90.5q-127 0 -216 -90t-89 -233z M457 1167q217 66 344 185l33 -144q-69 -48 -133.5 -74.5t-157.5 -50.5z" />
<glyph unicode="&#xf4;" horiz-adv-x="1128" d="M72 463q0 214 141.5 350.5t351.5 136.5t351 -136.5t141 -350.5q0 -141 -65.5 -252.5t-177.5 -172.5t-249 -61t-249.5 61t-178 172.5t-65.5 252.5zM260 463q0 -141 89.5 -231.5t215.5 -90.5q125 0 214 90.5t89 231.5q0 142 -89 232.5t-214 90.5q-127 0 -216 -90t-89 -233z M332 1165q129 55 229 197q96 -141 227 -197l-81 -82q-94 45 -146 101q-54 -56 -145 -101z" />
<glyph unicode="&#xf5;" horiz-adv-x="1128" d="M72 463q0 214 141.5 350.5t351.5 136.5t351 -136.5t141 -350.5q0 -141 -65.5 -252.5t-177.5 -172.5t-249 -61t-249.5 61t-178 172.5t-65.5 252.5zM260 463q0 -141 89.5 -231.5t215.5 -90.5q125 0 214 90.5t89 231.5q0 142 -89 232.5t-214 90.5q-127 0 -216 -90t-89 -233z M319 1116l31 125q74 41 124.5 60.5t113.5 23.5l26 -111q100 19 197 76l-33 -121q-61 -42 -114 -62t-121 -24l-27 107q-104 -17 -197 -74z" />
<glyph unicode="&#xf6;" horiz-adv-x="1128" d="M72 463q0 214 141.5 350.5t351.5 136.5t351 -136.5t141 -350.5q0 -141 -65.5 -252.5t-177.5 -172.5t-249 -61t-249.5 61t-178 172.5t-65.5 252.5zM260 463q0 -141 89.5 -231.5t215.5 -90.5q125 0 214 90.5t89 231.5q0 142 -89 232.5t-214 90.5q-127 0 -216 -90t-89 -233z M344 1174q0 23 35 57.5t57 34.5q23 0 56.5 -34.5t33.5 -57.5q0 -22 -33.5 -56.5t-56.5 -34.5q-22 0 -57 34.5t-35 56.5zM610 1174q0 24 34 58t58 34q23 0 57 -34.5t34 -57.5q0 -22 -34 -56.5t-57 -34.5q-24 0 -58 34.5t-34 56.5z" />
<glyph unicode="&#xf7;" horiz-adv-x="929" d="M82 487v160h766v-160h-766zM356 311q0 26 40.5 66.5t68.5 40.5q27 0 67.5 -40t40.5 -67q0 -28 -40 -68t-68 -40t-68.5 40t-40.5 68zM356 825q0 26 40.5 66.5t68.5 40.5q27 0 67.5 -40t40.5 -67q0 -28 -40 -68t-68 -40t-68.5 40t-40.5 68z" />
<glyph unicode="&#xf8;" horiz-adv-x="1116" d="M72 463q0 214 141.5 350.5t351.5 136.5q143 0 258 -67l90 110l86 -71l-86 -107q144 -137 144 -352q0 -141 -65.5 -252.5t-177.5 -172.5t-249 -61q-148 0 -264 72l-92 -115l-86 72l88 109q-139 139 -139 348zM260 463q0 -116 66 -205l389 487q-71 41 -150 41 q-127 0 -216 -90t-89 -233zM408 184q75 -43 157 -43q125 0 214 90.5t89 231.5q0 121 -67 211z" />
<glyph unicode="&#xf9;" horiz-adv-x="1036" d="M113 313v615h186v-596q0 -81 53 -138t162 -57q106 0 164.5 58t58.5 137v596h187v-928h-164l-8 92q-57 -61 -119.5 -88t-167.5 -27q-155 0 -253.5 91.5t-98.5 244.5zM254 1208l35 144q124 -119 342 -185l-86 -84q-92 24 -156.5 50.5t-134.5 74.5z" />
<glyph unicode="&#xfa;" horiz-adv-x="1036" d="M113 313v615h186v-596q0 -81 53 -138t162 -57q106 0 164.5 58t58.5 137v596h187v-928h-164l-8 92q-57 -61 -119.5 -88t-167.5 -27q-155 0 -253.5 91.5t-98.5 244.5zM424 1167q217 66 344 185l33 -144q-69 -48 -133.5 -74.5t-157.5 -50.5z" />
<glyph unicode="&#xfb;" horiz-adv-x="1036" d="M113 313v615h186v-596q0 -81 53 -138t162 -57q106 0 164.5 58t58.5 137v596h187v-928h-164l-8 92q-57 -61 -119.5 -88t-167.5 -27q-155 0 -253.5 91.5t-98.5 244.5zM295 1165q129 55 229 197q96 -141 228 -197l-82 -82q-94 45 -146 101q-54 -56 -145 -101z" />
<glyph unicode="&#xfc;" horiz-adv-x="1036" d="M113 313v615h186v-596q0 -81 53 -138t162 -57q106 0 164.5 58t58.5 137v596h187v-928h-164l-8 92q-57 -61 -119.5 -88t-167.5 -27q-155 0 -253.5 91.5t-98.5 244.5zM299 1174q0 23 35 57.5t57 34.5q23 0 56.5 -34.5t33.5 -57.5q0 -22 -33.5 -56.5t-56.5 -34.5 q-22 0 -57 34.5t-35 56.5zM565 1174q0 24 34 58t58 34q23 0 57 -34.5t34 -57.5q0 -22 -34 -56.5t-57 -34.5q-24 0 -58 34.5t-34 56.5z" />
<glyph unicode="&#xfd;" horiz-adv-x="980" d="M2 -369q130 48 222.5 151.5t172.5 299.5l-346 846h193l172 -422q36 -84 80 -209h4q29 83 78 203l174 428h178l-342 -838q-99 -244 -213 -375.5t-260 -197.5zM383 1167q217 66 344 185l33 -144q-69 -48 -133.5 -74.5t-157.5 -50.5z" />
<glyph unicode="&#xfe;" horiz-adv-x="1101" d="M123 -473v1931h186v-586q94 78 266 78q61 0 124 -19t122.5 -59.5t106 -96.5t74.5 -136.5t28 -173.5q0 -213 -140 -350.5t-349 -137.5q-138 0 -232 62v-512h-186zM309 227q39 -38 100.5 -62t131.5 -24q127 0 214 90.5t87 233.5q0 142 -87 231.5t-214 89.5 q-73 0 -133.5 -25.5t-98.5 -68.5v-465z" />
<glyph unicode="&#xff;" horiz-adv-x="980" d="M2 -369q130 48 222.5 151.5t172.5 299.5l-346 846h193l172 -422q36 -84 80 -209h4q29 83 78 203l174 428h178l-342 -838q-99 -244 -213 -375.5t-260 -197.5zM272 1167q0 23 34.5 58t55.5 35q24 0 57.5 -34.5t33.5 -58.5q0 -22 -33.5 -56t-57.5 -34q-21 0 -55.5 34.5 t-34.5 55.5zM539 1167q0 23 33.5 58t56.5 35q24 0 57 -34.5t33 -58.5q0 -22 -33 -56t-57 -34q-23 0 -56.5 34t-33.5 56z" />
<glyph unicode="&#x152;" horiz-adv-x="1951" d="M82 655q0 123 38.5 231.5t105 189t154.5 139.5t189 88.5t205 29.5q189 0 361 -96v70h702v-170h-506v-396h424v-170h-424v-401h578v-170h-774v72q-173 -97 -361 -97q-105 0 -205.5 29.5t-188.5 88t-154.5 139.5t-105 190t-38.5 233zM283 655q0 -117 42.5 -215t112.5 -161 t157 -97.5t179 -34.5q97 0 193.5 38.5t167.5 103.5v731q-71 65 -167.5 103t-193.5 38q-92 0 -179 -34t-157 -96.5t-112.5 -160.5t-42.5 -215z" />
<glyph unicode="&#x153;" horiz-adv-x="1800" d="M72 463q0 214 141.5 350.5t351.5 136.5q122 0 226 -49t170 -137q67 89 166 137.5t200 48.5q93 0 170.5 -30.5t127 -81t77 -113t27.5 -127.5q0 -41 -7 -76l-104 -104h-557q2 -45 24 -92t60.5 -89t102.5 -69t141 -27q163 0 297 95l-48 -199q-113 -60 -274 -60 q-121 0 -225.5 51t-173.5 142q-66 -91 -171 -142t-229 -51q-137 0 -249.5 61t-178 172.5t-65.5 252.5zM260 463q0 -141 89.5 -231.5t215.5 -90.5q125 0 214 90.5t89 231.5q0 142 -89 232.5t-214 90.5q-127 0 -216 -90t-89 -233zM1073 569h465q2 8 2 25q0 74 -57.5 135.5 t-145.5 61.5q-90 0 -168.5 -63.5t-95.5 -158.5z" />
<glyph unicode="&#x178;" horiz-adv-x="1236" d="M20 1307h218l262 -369q42 -59 123 -184h4q22 34 125 184l262 369h203l-502 -705v-602h-195v602zM354 1569q0 27 41 67.5t66 40.5q28 0 67 -40t39 -68q0 -25 -39.5 -66t-66.5 -41q-25 0 -66 41t-41 66zM668 1569q0 28 39 68t67 40t67.5 -40t39.5 -68q0 -25 -40 -66 t-67 -41t-66.5 41t-39.5 66z" />
<glyph unicode="&#x2c6;" horiz-adv-x="819" d="M139 1149q150 62 271 231q117 -169 268 -231l-98 -96q-107 50 -170 118q-66 -68 -172 -118z" />
<glyph unicode="&#x2dc;" horiz-adv-x="819" d="M123 1092l37 147q85 47 144 70t134 28l31 -129q109 17 231 88l-36 -143q-72 -48 -135 -71t-144 -29l-31 125q-111 -15 -231 -86z" />
<glyph unicode="&#x2000;" horiz-adv-x="952" />
<glyph unicode="&#x2001;" horiz-adv-x="1905" />
<glyph unicode="&#x2002;" horiz-adv-x="952" />
<glyph unicode="&#x2003;" horiz-adv-x="1905" />
<glyph unicode="&#x2004;" horiz-adv-x="635" />
<glyph unicode="&#x2005;" horiz-adv-x="476" />
<glyph unicode="&#x2006;" horiz-adv-x="317" />
<glyph unicode="&#x2007;" horiz-adv-x="317" />
<glyph unicode="&#x2008;" horiz-adv-x="238" />
<glyph unicode="&#x2009;" horiz-adv-x="381" />
<glyph unicode="&#x200a;" horiz-adv-x="105" />
<glyph unicode="&#x2010;" horiz-adv-x="675" d="M82 487v160h512v-160h-512z" />
<glyph unicode="&#x2011;" horiz-adv-x="675" d="M82 487v160h512v-160h-512z" />
<glyph unicode="&#x2012;" horiz-adv-x="675" d="M82 487v160h512v-160h-512z" />
<glyph unicode="&#x2013;" horiz-adv-x="1187" d="M82 487v160h1024v-160h-1024z" />
<glyph unicode="&#x2014;" horiz-adv-x="1699" d="M82 487v160h1536v-160h-1536z" />
<glyph unicode="&#x2018;" horiz-adv-x="403" d="M78 1087q0 62 68 182.5t141 188.5l71 -12q-54 -70 -89.5 -141.5t-41.5 -118.5q27 -5 64 -40t37 -59q0 -32 -48 -77t-77 -45q-28 0 -76.5 44.5t-48.5 77.5z" />
<glyph unicode="&#x2019;" horiz-adv-x="403" d="M43 987q54 68 89.5 139.5t43.5 120.5q-28 5 -64 40t-36 59q0 33 47.5 77.5t77.5 44.5q28 0 76.5 -44.5t48.5 -77.5q0 -62 -69 -182.5t-142 -188.5z" />
<glyph unicode="&#x201a;" horiz-adv-x="403" d="M43 -256q54 68 89.5 139.5t43.5 120.5q-28 5 -64 39.5t-36 58.5q0 33 47.5 78t77.5 45q28 0 76.5 -45t48.5 -78q0 -62 -69 -181.5t-142 -188.5z" />
<glyph unicode="&#x201c;" horiz-adv-x="753" d="M78 1087q0 62 68 182.5t141 188.5l71 -12q-54 -69 -89.5 -140t-41.5 -120q27 -3 64 -39t37 -60q0 -32 -48 -77t-77 -45q-28 0 -76.5 44.5t-48.5 77.5zM430 1090q0 61 68 180.5t141 189.5l74 -14q-55 -68 -91 -139t-42 -119q27 -5 63.5 -40t36.5 -58q0 -34 -48 -79.5 t-77 -45.5q-28 0 -76.5 45t-48.5 80z" />
<glyph unicode="&#x201d;" horiz-adv-x="755" d="M43 987q54 68 89.5 139.5t43.5 120.5q-28 5 -64 40t-36 59q0 33 47.5 77.5t77.5 44.5q27 0 76 -44.5t49 -77.5q0 -62 -69 -182.5t-142 -188.5zM395 989q53 68 89 139t44 119q-28 5 -64 40.5t-36 58.5q0 33 47.5 77.5t77.5 44.5q27 0 76 -44.5t49 -77.5q0 -61 -69 -182 t-142 -189z" />
<glyph unicode="&#x201e;" horiz-adv-x="724" d="M31 -256q54 68 89.5 139.5t43.5 120.5q-28 5 -64.5 39.5t-36.5 58.5q0 33 47.5 78t77.5 45q27 0 76 -45t49 -78q0 -62 -69 -181.5t-142 -188.5zM383 -254q53 68 89 139t44 119q-28 5 -64 40t-36 58q0 33 47.5 78t77.5 45q27 0 76 -45t49 -78q0 -61 -69 -181.5 t-142 -188.5z" />
<glyph unicode="&#x2022;" horiz-adv-x="808" d="M102 567q0 132 87.5 215.5t216.5 83.5t215 -83.5t86 -215.5q0 -131 -86 -214t-215 -83t-216.5 83.5t-87.5 213.5z" />
<glyph unicode="&#x2026;" horiz-adv-x="1124" d="M76 102q0 29 47 76t78 47t78 -47t47 -76q0 -31 -47 -78t-78 -47t-78 47t-47 78zM436 102q0 30 46.5 76.5t78.5 46.5q31 0 78 -47t47 -76q0 -31 -47 -78t-78 -47q-32 0 -78.5 47t-46.5 78zM797 102q0 29 47 76t78 47q32 0 79.5 -46.5t47.5 -76.5q0 -31 -47.5 -78 t-79.5 -47q-31 0 -78 47t-47 78z" />
<glyph unicode="&#x202f;" horiz-adv-x="381" />
<glyph unicode="&#x2039;" horiz-adv-x="473" d="M-2 567q202 146 326 351l106 -107q-70 -131 -186 -244q120 -117 186 -243l-106 -107q-129 213 -326 350z" />
<glyph unicode="&#x203a;" horiz-adv-x="473" d="M43 324q62 124 184 243q-118 115 -184 244l107 107q125 -206 325 -351q-195 -136 -325 -350z" />
<glyph unicode="&#x205f;" horiz-adv-x="476" />
<glyph unicode="&#x2122;" horiz-adv-x="851" d="M41 1241v66h289v-66h-109v-313h-71v313h-109zM354 928l31 379h49l135 -263l131 263h52l30 -379h-71l-19 217l-114 -217h-27l-111 213l-16 -213h-70z" />
<glyph unicode="&#x25fc;" horiz-adv-x="931" d="M0 0v932h932v-932h-932z" />
<glyph unicode="&#xfb01;" horiz-adv-x="1069" d="M20 778v150h158v102q0 205 106.5 320.5t295.5 115.5q128 0 219 -53l-37 -156q-84 54 -203 54q-91 0 -142.5 -70.5t-51.5 -169.5v-143h550v-928h-186v778h-364v-778h-187v778h-158z" />
<glyph unicode="&#xfb02;" horiz-adv-x="1167" d="M20 778v150h158v39q0 235 132.5 367t344.5 132q195 0 314 -92v-1124q0 -61 38.5 -103.5t86.5 -50.5l-127 -127q-28 7 -55.5 22.5t-59 44t-51 77.5t-19.5 112v1061q-54 25 -155 25q-112 0 -187 -81.5t-75 -221.5v-80h206l-32 -150h-174v-778h-187v778h-158z" />
</font>
</defs>
</svg>
