<?xml version="1.0" standalone="no"?>
<!DOCTYPE svg PUBLIC "-//W3C//DTD SVG 1.1//EN" "http://www.w3.org/Graphics/SVG/1.1/DTD/svg11.dtd" >
<svg xmlns="http://www.w3.org/2000/svg">
<metadata></metadata>
<defs>
<font id="agenda_lightitalic" horiz-adv-x="1017" >
<font-face units-per-em="2048" ascent="1638" descent="-410" />
<missing-glyph horiz-adv-x="487" />
<glyph horiz-adv-x="0" />
<glyph horiz-adv-x="682" />
<glyph unicode=" "  horiz-adv-x="487" />
<glyph unicode="&#x09;" horiz-adv-x="487" />
<glyph unicode="&#xa0;" horiz-adv-x="487" />
<glyph unicode="!" horiz-adv-x="483" d="M68 82q0 30 44 76.5t72 46.5q24 0 51 -37.5t27 -67.5q0 -28 -44.5 -74t-72.5 -46q-24 0 -50.5 36t-26.5 66zM154 348l161 1049h152l-211 -1078z" />
<glyph unicode="&#x22;" horiz-adv-x="567" d="M186 1038l50 420h129l-105 -420h-74zM477 1038l49 420h127l-102 -420h-74z" />
<glyph unicode="#" horiz-adv-x="843" d="M-39 0l176 432h-117l3 86h149l111 270h-138l2 86h170l177 433h96l-176 -433h221l174 433h96l-174 -433h115l-2 -86h-150l-110 -270h137l-2 -86h-170l-176 -432h-97l177 432h-220l-176 -432h-96zM268 518h219l111 270h-219z" />
<glyph unicode="$" horiz-adv-x="927" d="M-25 51l23 127q140 -82 326 -82q138 0 241 74t103 188q0 83 -49.5 147.5t-165.5 119.5q-134 63 -197 147t-63 203q0 128 99 225t253 123l33 186h86l-31 -180q169 0 266 -43l-31 -112q-87 38 -233 38q-137 0 -222 -71t-85 -156q0 -84 44 -139t148 -105 q142 -67 212.5 -156.5t70.5 -213.5q0 -156 -110 -261.5t-300 -125.5l-31 -183h-86l31 176q-183 3 -332 74z" />
<glyph unicode="%" horiz-adv-x="1433" d="M49 23l1311 1323l61 -60l-1310 -1325zM168 1008q0 139 95 230t229 91q103 0 169 -66t66 -165q0 -137 -96 -229.5t-230 -92.5q-102 0 -167.5 66.5t-65.5 165.5zM279 1018q0 -63 38.5 -101t98.5 -38q79 0 140.5 61.5t61.5 146.5q0 65 -40 103.5t-101 38.5q-78 0 -138 -62.5 t-60 -148.5zM748 211q0 139 94 230t229 91q103 0 169.5 -66t66.5 -165q0 -138 -95.5 -229.5t-230.5 -91.5q-102 0 -167.5 65.5t-65.5 165.5zM856 221q0 -64 39 -102.5t100 -38.5q78 0 139.5 62.5t61.5 148.5q0 63 -39 101t-100 38q-78 0 -139.5 -62t-61.5 -147z" />
<glyph unicode="&#x26;" horiz-adv-x="1204" d="M41 285q0 135 83.5 237t256.5 189q-129 147 -129 286q0 77 33 142t86 105.5t117 62.5t128 22q116 0 199.5 -72.5t83.5 -193.5q0 -113 -87 -206t-245 -181l281 -338q111 128 192 297l76 -96q-75 -161 -194 -291l206 -248h-159l-133 160q-210 -183 -445 -183 q-84 0 -152.5 26.5t-110.5 70.5t-64.5 98.5t-22.5 112.5zM166 295q0 -86 67.5 -145.5t172.5 -59.5q84 0 177 43.5t175 120.5l-305 369q-143 -74 -215 -152.5t-72 -175.5zM377 1004q0 -52 28.5 -107t94.5 -133q140 80 207 149.5t67 145.5q0 69 -47 115.5t-125 46.5 q-90 0 -157.5 -66t-67.5 -151z" />
<glyph unicode="'" horiz-adv-x="276" d="M186 1038l50 420h129l-105 -420h-74z" />
<glyph unicode="(" horiz-adv-x="499" d="M37 117q0 369 116.5 707.5t321.5 627.5l125 -29q-201 -278 -317.5 -605.5t-116.5 -686.5q0 -290 94 -590l-133 33q-90 278 -90 543z" />
<glyph unicode=")" horiz-adv-x="499" d="M-119 -430q202 280 319 607.5t117 684.5q0 288 -94 592l131 -35q90 -268 90 -540q0 -370 -116 -710t-320 -628z" />
<glyph unicode="*" horiz-adv-x="835" d="M143 1069l35 119l283 -109l41 297l127 29l-72 -326l299 107l43 -109l-326 -84l146 -239l-98 -92l-136 272l-209 -252l-102 51l246 258z" />
<glyph unicode="+" horiz-adv-x="946" d="M86 518l18 105h322l53 305h123l-53 -305h321l-18 -105h-322l-53 -305h-123l54 305h-322z" />
<glyph unicode="," horiz-adv-x="382" d="M-78 -227q56 57 98 120t54 107q-20 6 -40 33t-20 51q0 29 45 75t72 46q22 0 50 -36.5t28 -68.5q0 -52 -73 -157t-156 -179z" />
<glyph unicode="-" horiz-adv-x="692" d="M86 518l18 105h512l-18 -105h-512z" />
<glyph unicode="." horiz-adv-x="382" d="M12 82q0 30 44 76.5t71 46.5q25 0 52.5 -37.5t27.5 -67.5q0 -28 -45.5 -74t-73.5 -46q-24 0 -50 36t-26 66z" />
<glyph unicode="/" horiz-adv-x="1271" d="M-33 41l1305 1321l74 -70l-1299 -1323z" />
<glyph unicode="0" horiz-adv-x="1110" d="M84 453q0 127 26.5 253t79 238t124 198t169 136.5t207.5 50.5q161 0 265 -123t104 -350q0 -127 -26.5 -254t-79.5 -239t-125 -198.5t-169 -137t-206 -50.5q-161 0 -265 123.5t-104 352.5zM213 453q0 -176 70.5 -267.5t181.5 -91.5q98 0 186 67t148.5 174.5t95.5 243.5 t35 273q0 177 -70.5 269.5t-181.5 92.5q-97 0 -185 -67t-148.5 -175t-96 -244.5t-35.5 -274.5z" />
<glyph unicode="1" horiz-adv-x="598" d="M135 1188l45 106l373 33l-236 -1327h-129l213 1214z" />
<glyph unicode="2" horiz-adv-x="937" d="M-39 0l8 31q781 669 781 975q0 208 -238 208q-138 0 -285 -90l-24 111q161 94 323 94t258.5 -83.5t96.5 -237.5q0 -93 -56.5 -209t-152.5 -235t-207 -229.5t-236 -215.5h564l-23 -119h-809z" />
<glyph unicode="3" horiz-adv-x="856" d="M6 20v123q105 -51 219 -51q106 0 196.5 43t146 125t55.5 186q0 99 -70.5 169.5t-169.5 70.5q-21 0 -61 -4l-25 109q141 23 235.5 100.5t94.5 167.5q0 69 -50 113.5t-137 44.5q-110 0 -213 -64l-26 109q124 67 256 67q134 0 216.5 -74.5t82.5 -189.5q0 -104 -74.5 -189.5 t-173.5 -113.5q98 -16 170 -100.5t72 -206.5q0 -208 -146 -341.5t-391 -133.5q-120 0 -207 40z" />
<glyph unicode="4" horiz-adv-x="983" d="M8 471l780 836h91l-146 -834h162l-18 -100h-162l-66 -373h-129l66 373h-570zM147 473h455l74 401q17 114 37 205l-4 2q-82 -99 -181 -202z" />
<glyph unicode="5" horiz-adv-x="911" d="M57 23v127q99 -54 248 -54t260 103t111 250q0 111 -75 178t-191 67q-140 0 -240 -41l133 654h543l-39 -113h-401l-82 -399q41 14 110 14q163 0 267 -99t104 -255q0 -197 -146 -335t-372 -138q-139 0 -230 41z" />
<glyph unicode="6" horiz-adv-x="1009" d="M57 348q0 183 105 379t279.5 356.5t379.5 253.5l115 -57q-204 -91 -382 -252.5t-273 -341.5q42 50 115 84.5t161 34.5q157 0 254.5 -96.5t97.5 -249.5q0 -204 -140.5 -341.5t-344.5 -137.5q-158 0 -262.5 100t-104.5 268zM184 354q0 -114 74 -187t184 -73 q134 0 235 107.5t101 251.5q0 107 -66.5 172t-176.5 65q-108 0 -196 -55t-134 -162q-21 -58 -21 -119z" />
<glyph unicode="7" horiz-adv-x="903" d="M82 0l725 1200h-645l16 107h836l-787 -1307h-145z" />
<glyph unicode="8" horiz-adv-x="1019" d="M45 309q0 77 34 147.5t89 120.5t113 85t116 53q-74 29 -124 100t-50 160q0 101 58.5 183t154 126.5t205.5 44.5q139 0 230.5 -79t91.5 -199q0 -61 -24.5 -116t-66 -96t-89 -71.5t-101.5 -50.5q87 -29 155 -115t68 -199q0 -124 -70.5 -223.5t-181.5 -151t-237 -51.5 q-162 0 -266.5 91t-104.5 241zM170 313q0 -101 73 -162t183 -61q135 0 241.5 91.5t106.5 219.5q0 92 -72 157t-184 95q-144 -38 -246 -129.5t-102 -210.5zM350 977q0 -71 54.5 -126t150.5 -81q130 36 206.5 112t76.5 165q0 78 -58 126t-149 48q-109 0 -195 -72.5t-86 -171.5 z" />
<glyph unicode="9" horiz-adv-x="1009" d="M113 29q204 91 382 252.5t273 341.5q-42 -49 -115 -83t-161 -34q-158 0 -255.5 95.5t-97.5 248.5q0 204 141 341.5t345 137.5q158 0 262 -100t104 -266q0 -137 -61.5 -286.5t-165.5 -281t-244 -243.5t-293 -181zM270 856q0 -107 67 -172.5t177 -65.5q108 0 196 55.5 t134 162.5q20 58 20 120q0 113 -74 185.5t-184 72.5q-134 0 -235 -107t-101 -251z" />
<glyph unicode=":" horiz-adv-x="382" d="M12 82q0 30 44 76.5t71 46.5q25 0 52.5 -37.5t27.5 -67.5q0 -28 -45.5 -74t-73.5 -46q-24 0 -50 36t-26 66zM143 827q0 29 44.5 75t72.5 46q24 0 51 -36.5t27 -65.5q0 -28 -45.5 -75.5t-71.5 -47.5t-52 36t-26 68z" />
<glyph unicode=";" horiz-adv-x="382" d="M-78 -227q56 57 98 120t54 107q-20 6 -40 33t-20 51q0 29 45 75t72 46q22 0 50 -36.5t28 -68.5q0 -52 -73 -157t-156 -179zM143 827q0 29 44.5 75t72.5 46q24 0 51 -36.5t27 -65.5q0 -28 -45.5 -75.5t-71.5 -47.5t-52 36t-26 68z" />
<glyph unicode="&#x3c;" horiz-adv-x="718" d="M104 567l426 363l70 -84l-326 -279l228 -278l-99 -84z" />
<glyph unicode="=" horiz-adv-x="946" d="M55 342l19 104h766l-19 -104h-766zM117 694l18 105h766l-18 -105h-766z" />
<glyph unicode="&#x3e;" horiz-adv-x="718" d="M125 289l328 278l-230 279l101 84l299 -363l-426 -362z" />
<glyph unicode="?" horiz-adv-x="784" d="M180 82q0 30 44 76.5t71 46.5q25 0 52.5 -37.5t27.5 -67.5q0 -28 -45.5 -74t-73.5 -46q-24 0 -50 36t-26 66zM188 1317q55 45 132 72.5t161 27.5q140 0 230 -80t90 -209q0 -50 -13.5 -96.5t-34.5 -84t-58 -80.5t-70.5 -75.5t-85.5 -78.5q-78 -69 -115.5 -138t-46.5 -161 q-12 -49 -12 -97l-107 27v33q0 121 53 231t146 191q97 81 152 158.5t55 162.5q0 78 -53.5 130.5t-145.5 52.5q-141 0 -252 -103z" />
<glyph unicode="@" horiz-adv-x="1572" d="M115 539q0 163 65.5 310.5t176 252.5t261.5 167t316 62q132 0 242.5 -43t185 -116.5t115.5 -172.5t41 -211q0 -66 -17 -136.5t-51.5 -137.5t-80.5 -120t-109.5 -85.5t-133.5 -32.5q-62 0 -98.5 41.5t-36.5 116.5q-37 -73 -110 -115.5t-168 -42.5q-96 0 -165 72t-69 193 q0 104 42 196t109 152.5t150 95.5t166 35q137 0 221 -76l-73 -426q-7 -40 -7 -55q0 -41 14.5 -61.5t39.5 -20.5q39 0 86 32.5t88 85.5t68.5 131t27.5 161q0 189 -133 315.5t-352 126.5q-140 0 -269 -54t-224 -146.5t-151.5 -221.5t-56.5 -272q0 -146 62 -251.5t163.5 -156.5 t229.5 -51q136 0 227 65l-33 -118q-71 -47 -212 -47q-240 0 -393.5 154t-153.5 405zM596 543q0 -75 40.5 -120.5t104.5 -45.5q92 0 166 87.5t105 252.5l30 172q-37 29 -104 29q-131 0 -236.5 -109t-105.5 -266z" />
<glyph unicode="A" horiz-adv-x="1230" d="M-43 0l776 1333h43l305 -1333h-135l-84 373h-549l-215 -373h-141zM379 479h459l-88 402q-23 114 -33 200h-4q-45 -96 -107 -200z" />
<glyph unicode="B" horiz-adv-x="1034" d="M45 0l229 1307h310q134 0 222.5 -76t88.5 -199q0 -94 -56 -179.5t-139 -117.5q96 -22 161 -104.5t65 -190.5q0 -130 -70 -232.5t-180 -155t-236 -52.5h-395zM201 113h231q141 0 248.5 93.5t107.5 231.5q0 104 -75.5 166t-190.5 62h-223zM319 778h170q105 0 188 72t83 176 q0 77 -57.5 122.5t-145.5 45.5h-164z" />
<glyph unicode="C" horiz-adv-x="1224" d="M98 551q0 160 63.5 303.5t175 248t272 165.5t345.5 61q200 0 306 -45l-27 -119q-99 45 -287 45q-150 0 -283 -53t-225.5 -142t-146 -208.5t-53.5 -249.5q0 -106 38.5 -194t104.5 -145t151.5 -88.5t180.5 -31.5q97 0 195.5 26t170.5 73l-35 -144q-129 -76 -362 -76 q-112 0 -216 38.5t-186.5 109.5t-132 181.5t-49.5 244.5z" />
<glyph unicode="D" horiz-adv-x="1296" d="M45 0l229 1307h328q286 0 461.5 -146t175.5 -395q0 -161 -64.5 -303t-176.5 -244t-270.5 -160.5t-340.5 -58.5h-342zM201 113h184q153 0 286 51.5t226 139.5t146 207.5t53 252.5q0 203 -141.5 316.5t-376.5 113.5h-185z" />
<glyph unicode="E" horiz-adv-x="940" d="M45 0l229 1307h682l-18 -113h-545l-84 -477h447l-21 -113h-446l-86 -491h616l-20 -113h-754z" />
<glyph unicode="F" horiz-adv-x="868" d="M45 0l229 1307h695l-19 -113h-557l-84 -477h475l-20 -113h-475l-107 -604h-137z" />
<glyph unicode="G" horiz-adv-x="1378" d="M98 551q0 160 63.5 303.5t175 248t272 165.5t345.5 61q213 0 336 -57l-26 -119q-121 57 -318 57q-150 0 -283 -53.5t-225.5 -142.5t-146 -208.5t-53.5 -248.5q0 -140 67.5 -246.5t174 -159.5t231.5 -53q103 0 194 24.5t150 65.5l57 328h-346l18 107h478l-86 -498 q-182 -148 -494 -148q-88 0 -172.5 24t-159 72.5t-131 116t-89 161t-32.5 200.5z" />
<glyph unicode="H" horiz-adv-x="1306" d="M45 0l229 1307h138l-103 -590h750l102 590h137l-229 -1307h-137l106 604h-749l-107 -604h-137z" />
<glyph unicode="I" horiz-adv-x="489" d="M80 0l229 1307h137l-229 -1307h-137z" />
<glyph unicode="J" horiz-adv-x="516" d="M-254 -168q166 31 271.5 144t138.5 303l180 1028h137l-182 -1043q-39 -220 -168 -352t-293 -166z" />
<glyph unicode="K" horiz-adv-x="1044" d="M45 0l231 1307h136l-113 -629l674 629h164l-705 -656l490 -651h-158l-473 627l-111 -627h-135z" />
<glyph unicode="L" horiz-adv-x="909" d="M45 0l229 1307h138l-209 -1194h608l-20 -113h-746z" />
<glyph unicode="M" horiz-adv-x="1679" d="M25 0l333 1307h84l232 -734q72 -223 106 -366h4q75 127 234 366l485 734h92l-120 -1307h-127l63 678q17 185 39 340h-4q-76 -125 -223 -348l-453 -684h-45l-213 684q-52 166 -100 346h-4q-27 -130 -80 -338l-174 -678h-129z" />
<glyph unicode="N" horiz-adv-x="1419" d="M45 0l229 1307h97l485 -701q162 -239 234 -354l6 2q32 232 53 350l125 703h137l-233 -1336h-37l-516 744q-109 159 -250 379l-4 -2q-21 -158 -60 -367l-129 -725h-137z" />
<glyph unicode="O" horiz-adv-x="1540" d="M96 543q0 166 67.5 314.5t178.5 250.5t256 161.5t297 59.5q162 0 295.5 -68.5t213 -198.5t79.5 -298q0 -166 -68 -314.5t-179.5 -251t-256.5 -162t-297 -59.5q-162 0 -295 69t-212 199t-79 298zM236 545q0 -200 130.5 -323.5t325.5 -123.5q121 0 239 52t208 140 t146 212.5t56 259.5q0 201 -130 324.5t-324 123.5q-122 0 -240 -52.5t-208.5 -140.5t-146.5 -212.5t-56 -259.5z" />
<glyph unicode="P" horiz-adv-x="925" d="M45 0l229 1307h361q142 0 236 -87t94 -223q0 -114 -61 -206t-162 -142.5t-220 -50.5h-235l-105 -598h-137zM307 711h215q123 0 215 85.5t92 198.5q0 90 -66 144.5t-165 54.5h-205z" />
<glyph unicode="Q" horiz-adv-x="1540" d="M96 543q0 166 67.5 314.5t178.5 250.5t256 161.5t297 59.5q162 0 295.5 -68t213 -198t79.5 -299q0 -147 -54.5 -282t-145 -234t-210.5 -165t-250 -85l-2 -4q45 -13 121 -51q168 -93 299 -93q91 0 166 35l-90 -123q-54 -16 -113 -16q-96 0 -181 26.5t-185 86.5 q-117 70 -226 123q-225 22 -370.5 175t-145.5 386zM236 545q0 -200 130.5 -323.5t325.5 -123.5q121 0 239 52t208 140t146 212.5t56 259.5q0 201 -130 324.5t-324 123.5q-122 0 -240 -52.5t-208.5 -140.5t-146.5 -212.5t-56 -259.5z" />
<glyph unicode="R" horiz-adv-x="1079" d="M45 0l229 1307h371q142 0 236 -87t94 -223q0 -141 -90.5 -244.5t-229.5 -136.5l349 -616h-150l-330 598h-237l-105 -598h-137zM307 711h223q124 0 216 85t92 199q0 90 -65.5 144.5t-164.5 54.5h-215z" />
<glyph unicode="S" horiz-adv-x="950" d="M14 49v127q146 -80 318 -80q140 0 246 78.5t106 194.5q0 81 -49 140.5t-166 115.5q-135 65 -197.5 148t-62.5 202q0 149 129 251.5t315 102.5q157 0 262 -43l-30 -112q-100 38 -238 38q-132 0 -218.5 -70t-86.5 -157t44.5 -141t148.5 -103q145 -68 214.5 -153.5 t69.5 -208.5q0 -173 -138.5 -287.5t-363.5 -114.5q-177 0 -303 72z" />
<glyph unicode="T" horiz-adv-x="1064" d="M129 1194l18 113h1037l-19 -113h-450l-211 -1194h-137l211 1194h-449z" />
<glyph unicode="U" horiz-adv-x="1302" d="M117 360q0 53 8 97l149 850h138l-148 -846q-8 -48 -8 -77v-11q0 -131 81.5 -202t231.5 -71q177 0 295.5 97.5t149.5 267.5l147 842h133l-149 -854q-41 -228 -197 -352t-387 -124q-200 0 -322 102t-122 281z" />
<glyph unicode="V" horiz-adv-x="1148" d="M166 1307h137l152 -701q43 -202 65 -350h4q67 134 189 350l397 701h139l-755 -1327h-39z" />
<glyph unicode="W" horiz-adv-x="1886" d="M188 1307h134l118 -686q36 -211 47 -342h5q51 113 170 342l354 686h119l116 -686q32 -192 45 -342h4q48 109 170 342l357 686h137l-694 -1327h-41l-127 761q-37 221 -55 383h-5q-76 -165 -188 -383l-397 -761h-43z" />
<glyph unicode="X" horiz-adv-x="1128" d="M-37 0l545 670l-287 637h148l161 -359q54 -114 74 -176h4q84 113 137 178l289 357h156l-518 -641l299 -666h-148l-170 375q-39 86 -78 188h-4q-46 -64 -147 -188l-305 -375h-156z" />
<glyph unicode="Y" horiz-adv-x="1183" d="M158 1307h145l211 -400q59 -110 100 -198h4q31 37 96 110.5t77 87.5l352 400h149l-624 -703l-107 -604h-135l106 604z" />
<glyph unicode="Z" horiz-adv-x="1011" d="M-43 0l6 31l584 776q69 93 297 387v2h-623l19 111h815l-6 -31l-584 -778q-27 -36 -299 -385l2 -2h706l-20 -111h-897z" />
<glyph unicode="[" horiz-adv-x="604" d="M-41 -446l330 1880h403l-16 -105h-277l-295 -1671h275l-17 -104h-403z" />
<glyph unicode="\" horiz-adv-x="1261" d="M190 1292l97 70l837 -1323l-100 -70z" />
<glyph unicode="]" horiz-adv-x="604" d="M-100 -446l18 104h275l294 1671h-274l16 105h404l-330 -1880h-403z" />
<glyph unicode="^" horiz-adv-x="774" d="M170 1106q194 80 360 268q98 -188 265 -268l-95 -82q-127 63 -198 164q-115 -103 -260 -164z" />
<glyph unicode="_" horiz-adv-x="1024" d="M-182 -473l20 106h1028l-18 -106h-1030z" />
<glyph unicode="`" horiz-adv-x="737" d="M313 1221l45 120q58 -72 151.5 -126.5t197.5 -86.5l-80 -71q-208 55 -314 164z" />
<glyph unicode="a" d="M43 274q0 145 57 270.5t151.5 209.5t216 132t249.5 48q149 0 237 -16l-161 -918h-111l45 276l-6 3q-58 -136 -166.5 -216.5t-230.5 -80.5q-119 0 -200 77.5t-81 214.5zM174 281q0 -91 46.5 -141t127.5 -50q59 0 122.5 34.5t123 99.5t107.5 170t71 233l35 192 q-34 6 -100 6q-102 0 -199 -42t-170.5 -113t-118.5 -173.5t-45 -215.5z" />
<glyph unicode="b" horiz-adv-x="1042" d="M45 55l248 1403h129l-141 -788l6 -2q53 120 157.5 196t233.5 76q118 0 200.5 -87t82.5 -235q0 -137 -52 -258t-138 -204t-197 -131t-228 -48q-87 0 -169 23t-132 55zM186 125q67 -39 170 -39q88 0 174.5 42t152.5 113t107 171.5t41 210.5q0 96 -51.5 152t-136.5 56 q-61 0 -125 -35t-124 -99.5t-107.5 -169.5t-69.5 -232z" />
<glyph unicode="c" horiz-adv-x="862" d="M55 330q0 102 35 197.5t97.5 170.5t143 132t177 87.5t194.5 30.5q86 0 146 -14l-27 -109q-43 11 -129 11q-98 0 -192 -43t-162 -111.5t-110 -158.5t-42 -181q0 -109 67.5 -178.5t178.5 -69.5q81 0 160 28.5t133 82.5l-37 -142q-89 -83 -276 -83q-69 0 -132 22.5 t-113.5 65t-81 110.5t-30.5 152z" />
<glyph unicode="d" horiz-adv-x="1042" d="M45 297q0 137 55.5 257.5t147.5 203t212 129.5t247 47q85 0 135 -6l96 530h129l-258 -1458h-111l47 276l-6 3q-60 -137 -171 -217t-240 -80q-119 0 -201 84t-82 231zM174 299q0 -97 51 -153t137 -56q61 0 125 35t123.5 100t107 169.5t70.5 232.5l35 190q-41 8 -127 8 q-100 0 -194.5 -40.5t-167 -109t-116.5 -167.5t-44 -209z" />
<glyph unicode="e" horiz-adv-x="933" d="M72 375q0 96 34 186.5t91.5 159t129.5 121t152 79.5t156 27q112 0 175.5 -55.5t63.5 -153.5q0 -114 -88 -206t-240.5 -142.5t-338.5 -50.5q4 -117 75.5 -181.5t192.5 -64.5q139 0 250 94l-41 -147q-85 -61 -221 -61q-175 0 -283 102.5t-108 292.5zM211 442 q110 0 210.5 25t170.5 64.5t111.5 89.5t41.5 100q0 113 -120 113q-83 0 -172.5 -50t-158.5 -142.5t-83 -199.5z" />
<glyph unicode="f" horiz-adv-x="634" d="M84 827l18 101h148l16 90q40 219 155.5 333.5t301.5 114.5q87 0 133 -14l-27 -109q-35 13 -116 13q-123 0 -206 -85t-106 -218l-20 -125h283l-27 -101h-275l-145 -827h-131l147 827h-149z" />
<glyph unicode="g" horiz-adv-x="933" d="M-76 -186q0 125 82 212t201 113l-101 97q12 45 59 88t97 57q-57 27 -93 84t-36 129q0 156 113.5 255t281.5 99q61 0 115 -16q43 -14 113 -14q85 0 135 32l27 -98q-50 -33 -144 -33q20 -20 33.5 -56t13.5 -75q0 -148 -112 -252t-285 -104q-75 0 -124.5 -23.5t-49.5 -54.5 q0 -9 22.5 -29t49.5 -30l225 -82q93 -34 147 -95.5t54 -144.5q0 -149 -132.5 -247.5t-336.5 -98.5q-158 0 -256.5 83t-98.5 204zM43 -174q0 -78 67 -135.5t179 -57.5q144 0 235.5 70t91.5 154q0 54 -35 93t-96 58l-168 53q-109 -2 -191.5 -70.5t-82.5 -164.5zM254 604 q0 -72 51.5 -118t136.5 -46q98 0 177 70t79 162q0 72 -52 120t-134 48q-105 0 -181.5 -70t-76.5 -166z" />
<glyph unicode="h" horiz-adv-x="1028" d="M35 0l258 1458h129l-143 -786l6 -2q27 51 60 94t81.5 87.5t114 70.5t139.5 26q106 0 178 -64t72 -177q0 -29 -6 -64l-113 -643h-129l113 647q4 16 4 49q0 66 -37 105t-105 39q-144 0 -271.5 -155t-176.5 -433l-45 -252h-129z" />
<glyph unicode="i" horiz-adv-x="471" d="M74 0l164 928h131l-164 -928h-131zM262 1198q0 27 42 68t67 41q23 0 47 -33t24 -60t-40.5 -66.5t-65.5 -39.5q-24 0 -49 31.5t-25 58.5z" />
<glyph unicode="j" horiz-adv-x="471" d="M-201 -391q104 34 172.5 120.5t91.5 219.5l175 979h129l-174 -989q-27 -152 -114 -263t-200 -147zM262 1198q0 27 41 68t66 41q24 0 47.5 -32.5t23.5 -60.5q0 -27 -40.5 -66.5t-65.5 -39.5q-23 0 -47.5 31.5t-24.5 58.5z" />
<glyph unicode="k" horiz-adv-x="872" d="M35 0l258 1458h129l-170 -973l487 443h160l-512 -463l375 -465h-158l-360 451l-80 -451h-129z" />
<glyph unicode="l" horiz-adv-x="518" d="M106 160q0 23 7 63l219 1235h129l-221 -1247q-4 -32 -4 -43q0 -91 86 -115l-82 -84q-57 13 -95.5 62.5t-38.5 128.5z" />
<glyph unicode="m" horiz-adv-x="1554" d="M25 0l163 928h111l-39 -248l6 -2q23 43 44 75.5t55.5 71t70.5 64t87 42.5t108 17q85 0 148 -55t63 -148q0 -34 -8 -67l6 -2q25 48 57.5 90.5t79.5 86t111 69.5t135 26q98 0 165.5 -67.5t67.5 -175.5q0 -30 -6 -60l-113 -645h-129l113 647q4 28 4 47q0 65 -31.5 105.5 t-91.5 40.5q-136 0 -247.5 -147t-159.5 -419l-50 -274h-129l113 647q4 28 4 47q0 65 -31 105.5t-90 40.5q-137 0 -248.5 -146.5t-160.5 -419.5l-49 -274h-129z" />
<glyph unicode="n" d="M25 0l163 928h111l-45 -277l6 -2q30 57 66 105.5t86.5 94.5t116.5 72.5t141 26.5q106 0 178 -64t72 -177q0 -24 -7 -64l-112 -643h-129l112 647q4 16 4 47q0 66 -37 106t-104 40q-144 0 -271.5 -155t-176.5 -433l-45 -252h-129z" />
<glyph unicode="o" horiz-adv-x="1099" d="M66 352q0 118 46 228.5t122 191t181 128.5t218 48q170 0 269 -102.5t99 -272.5q0 -118 -46 -228t-122 -189.5t-181 -127.5t-218 -48q-171 0 -269.5 101t-98.5 271zM197 362q0 -127 65 -197.5t189 -70.5q107 0 204.5 66t156 174.5t58.5 228.5q0 127 -65 199t-187 72 q-108 0 -206 -66.5t-156.5 -176t-58.5 -229.5z" />
<glyph unicode="p" horiz-adv-x="1042" d="M-49 -473l248 1401h110l-47 -277l6 -2q60 136 171.5 216.5t240.5 80.5q118 0 200.5 -85.5t82.5 -233.5q0 -137 -54.5 -258.5t-144.5 -205t-208 -131.5t-243 -48q-97 0 -147 20l-86 -477h-129zM184 113q46 -21 140 -21q95 0 187.5 42t163.5 113t115 171.5t44 210.5 q0 97 -51.5 153t-137.5 56q-61 0 -125 -35t-123.5 -100t-107 -169.5t-70.5 -232.5z" />
<glyph unicode="q" horiz-adv-x="1034" d="M45 301q0 137 57.5 258.5t151.5 204t214.5 130.5t246.5 48q153 0 248 -24l-246 -1391h-131l131 723l-4 2q-54 -120 -159.5 -195t-234.5 -75q-117 0 -195.5 85t-78.5 234zM176 305q0 -98 47.5 -153.5t132.5 -55.5q61 0 125 34.5t124 99.5t107.5 170t69.5 233l35 201 q-29 6 -115 6q-132 0 -252.5 -70t-197 -194.5t-76.5 -270.5z" />
<glyph unicode="r" horiz-adv-x="686" d="M45 0l164 928h110l-51 -324l4 -2q19 58 56 116t87 108.5t118 82t139 31.5l26 -109h-32q-90 0 -183.5 -78t-167.5 -220t-104 -314l-37 -219h-129z" />
<glyph unicode="s" horiz-adv-x="733" d="M-20 25v125q102 -60 235 -60q101 0 168.5 50.5t67.5 131.5q0 99 -113 148q-109 48 -158 102.5t-49 132.5q0 94 51 162.5t127.5 99.5t165.5 31q125 0 193 -35l-27 -100q-60 29 -172 29q-90 0 -151.5 -47t-61.5 -123q0 -43 24 -73.5t82 -55.5q120 -52 170 -110.5t50 -151.5 q0 -128 -107 -214.5t-272 -86.5q-132 0 -223 45z" />
<glyph unicode="t" horiz-adv-x="702" d="M78 827l16 101h193l35 200l141 68l-47 -268h313l-24 -101h-308l-102 -596q-3 -19 -3 -35q0 -40 18 -64q26 -34 75 -34q55 0 94 31l-30 -119q-33 -20 -103 -20q-92 0 -146 68q-39 49 -40 122q0 28 6 60l102 587h-190z" />
<glyph unicode="u" d="M70 221q0 30 6 64l112 643h129l-112 -647q-4 -18 -4 -50q0 -65 37 -104t104 -39q144 0 272 155t177 433l45 252h129l-164 -928h-111l45 276l-6 3q-30 -57 -66 -105.5t-86.5 -94.5t-116.5 -72.5t-141 -26.5q-106 0 -177.5 64t-71.5 177z" />
<glyph unicode="v" horiz-adv-x="940" d="M123 928h127l112 -475q34 -145 48 -236h4q41 84 131 236l278 475h129l-559 -946h-45z" />
<glyph unicode="w" horiz-adv-x="1456" d="M133 928h121l86 -463q29 -163 35 -232h4q64 133 117 230l249 465h99l88 -463q26 -140 35 -232h4q50 108 116 230l250 465h121l-512 -946h-41l-96 505q-27 139 -43 258h-4q-58 -125 -129 -253l-277 -510h-43z" />
<glyph unicode="x" horiz-adv-x="888" d="M-27 0l385 473l-202 455h137l106 -238q35 -86 47 -117h5q54 75 92 119l188 236h146l-371 -459l211 -469h-137l-113 248q-24 56 -47 125h-4q-12 -18 -101 -131l-196 -242h-146z" />
<glyph unicode="y" horiz-adv-x="968" d="M-127 -397q247 121 457 467l-211 858h133l117 -473q50 -215 53 -232h4q5 10 137 234l283 471h141l-510 -848q-142 -236 -270 -366t-254 -191z" />
<glyph unicode="z" horiz-adv-x="831" d="M-43 0l6 25l420 532q103 137 213 264l-4 2h-453l21 105h643l-4 -25l-420 -534q-159 -197 -213 -263l4 -2h524l-18 -104h-719z" />
<glyph unicode="{" horiz-adv-x="675" d="M20 492q111 63 174 172.5t91 263.5q88 504 458 504l11 -103q-271 0 -344 -416q-55 -290 -238 -430q98 -101 98 -272q0 -81 -14 -158q-16 -114 -16 -155q0 -121 52 -184.5t165 -63.5l-43 -99q-99 1 -167.5 47t-100 122t-31.5 176q0 67 16 161q14 77 14 154q0 196 -125 281 z" />
<glyph unicode="|" horiz-adv-x="440" d="M-16 -473l342 1931h112l-342 -1931h-112z" />
<glyph unicode="}" horiz-adv-x="675" d="M-98 -346q270 0 346 416q52 290 237 430q-100 103 -100 272q0 81 14 158q17 97 17 155q0 121 -52 184.5t-165 63.5l45 99q99 -1 167.5 -47t99 -122t30.5 -176q0 -73 -15 -161q-14 -77 -14 -154q0 -195 125 -280q-206 -116 -264 -437q-88 -504 -461 -504z" />
<glyph unicode="~" horiz-adv-x="798" d="M102 475l41 107q159 90 297 98l13 -115q108 8 252 90l-41 -104q-146 -92 -297 -98l-13 112q-111 -9 -252 -90z" />
<glyph unicode="&#xa1;" horiz-adv-x="483" d="M53 -86l211 1077l105 -28l-164 -1049h-152zM260 1208q0 29 44.5 75t72.5 46q24 0 51 -36t27 -66q0 -28 -45.5 -74.5t-71.5 -46.5t-52 35t-26 67z" />
<glyph unicode="&#xa2;" horiz-adv-x="862" d="M123 700q0 118 47 226.5t125 188.5t183 133t218 65l35 196h86l-35 -190q77 -3 133 -14l-24 -109q-49 10 -131 10q-98 0 -192 -42.5t-162 -111.5t-110 -158.5t-42 -180.5q0 -110 67.5 -179t178.5 -69q180 0 293 110l-37 -141q-50 -50 -142 -69l-34 -197h-86l32 184 q-14 -2 -45 -2q-69 0 -132 22.5t-114 64.5t-81.5 110.5t-30.5 152.5z" />
<glyph unicode="&#xa3;" horiz-adv-x="868" d="M-12 31q140 171 192 465l21 112h-150l15 86h149l33 187q82 444 459 444q73 0 149 -31l-27 -110q-62 30 -147 30q-113 0 -194.5 -82.5t-104.5 -218.5l-39 -219h307l-20 -86h-303l-21 -121q-48 -267 -133 -383q105 23 229 23q174 0 308 -47l-27 -107q-124 50 -301 50 q-174 0 -305 -43z" />
<glyph unicode="&#xa4;" horiz-adv-x="1003" d="M45 225l160 135q-37 66 -37 144q0 142 108 260l-112 137l69 60l113 -138q103 70 215 70t189 -70l163 138l54 -66l-162 -137q35 -57 35 -140q0 -148 -111 -262q0 1 28.5 -32.5t56.5 -67.5l28 -33l-72 -57l-111 133q-100 -68 -215 -68q-105 0 -182 64l-164 -135zM252 512 q0 -88 55.5 -143.5t145.5 -55.5q116 0 210.5 91t94.5 206q0 87 -57.5 143t-149.5 56q-116 0 -207.5 -91t-91.5 -206z" />
<glyph unicode="&#xa5;" horiz-adv-x="1185" d="M158 1307h145l211 -400q59 -110 100 -198h4q31 37 96 110.5t77 87.5l352 400h149l-477 -537h184l-14 -86h-246l-71 -80l-6 -37h303l-15 -86h-303l-86 -481h-135l86 481h-311l14 86h311l6 35l-40 82h-256l14 86h194z" />
<glyph unicode="&#xa6;" horiz-adv-x="440" d="M-16 -473l149 844h113l-150 -844h-112zM176 614l150 844h112l-149 -844h-113z" />
<glyph unicode="&#xa7;" horiz-adv-x="927" d="M18 -385l29 117q42 -30 111.5 -49t140.5 -19q66 0 120.5 23t87 60t49.5 78t17 81q0 60 -30 98l-424 533l121 264q-47 60 -47 157q0 68 27 133t77.5 118t131.5 85.5t181 32.5q168 0 271 -70l-29 -116q-42 30 -111.5 48.5t-140.5 18.5q-128 0 -201 -76.5t-73 -164.5 q0 -62 30 -99l422 -532l-116 -264q47 -61 47 -158q0 -68 -27.5 -133t-79 -118t-133 -85.5t-180.5 -32.5q-164 0 -271 70zM223 596l379 -471l74 156l-381 469z" />
<glyph unicode="&#xa8;" horiz-adv-x="737" d="M287 1153q0 28 41 69.5t67 41.5q24 0 47 -33t23 -62t-40.5 -69.5t-66.5 -40.5q-24 0 -47.5 32t-23.5 62zM571 1153q0 27 41 69t66 42q24 0 48 -33t24 -62t-41 -69.5t-66 -40.5q-24 0 -48 32t-24 62z" />
<glyph unicode="&#xa9;" horiz-adv-x="1230" d="M55 416q0 132 53.5 251t142 202t206.5 131.5t243 48.5q204 0 334.5 -122t130.5 -317q0 -132 -53.5 -251t-142 -202.5t-206.5 -132.5t-243 -49q-205 0 -335 122.5t-130 318.5zM141 420q0 -165 105 -266t278 -101q147 0 275 73t205 200.5t77 277.5q0 166 -107.5 266.5 t-281.5 100.5q-110 0 -211 -42t-176 -114.5t-119.5 -175.5t-44.5 -219zM354 430q0 101 54.5 187t143 135t187.5 49q51 0 105 -15l-21 -90q-46 11 -90 11q-105 0 -190.5 -86t-85.5 -183q0 -58 35 -93.5t90 -35.5q114 0 184 76l-29 -123q-55 -49 -168 -49q-84 0 -149.5 57.5 t-65.5 159.5z" />
<glyph unicode="&#xaa;" horiz-adv-x="849" d="M119 793q0 115 46 215t122 167.5t174 105.5t201 38q102 0 192 -16l-131 -730h-92l33 211q-50 -104 -135.5 -166.5t-182.5 -62.5q-95 0 -161 64t-66 174zM231 795q0 -72 36 -110t98 -38q48 0 98 26.5t97 76.5t84.5 133t55.5 186l29 154q-36 4 -76 4q-108 0 -204.5 -55 t-157 -155.5t-60.5 -221.5zM309 301q0 27 41 69t66 42q24 0 47.5 -32.5t23.5 -62.5q0 -28 -41 -69t-67 -41q-23 0 -46.5 33t-23.5 61z" />
<glyph unicode="&#xab;" horiz-adv-x="849" d="M14 567q111 67 212.5 158t172.5 188l62 -77q-103 -158 -266 -275q125 -122 170 -272l-86 -68q-38 98 -108 190.5t-157 155.5zM401 567q113 67 215.5 158.5t171.5 187.5l62 -77q-106 -162 -266 -275q124 -117 170 -272l-86 -68q-38 98 -108 190.5t-159 155.5z" />
<glyph unicode="&#xac;" horiz-adv-x="1040" d="M86 518l18 105h820l-60 -330h-116l40 225h-702z" />
<glyph unicode="&#xad;" horiz-adv-x="692" d="M86 518l18 105h512l-18 -105h-512z" />
<glyph unicode="&#xae;" horiz-adv-x="925" d="M141 879q0 125 64.5 229.5t169 162.5t223.5 58q145 0 237.5 -87.5t92.5 -225.5q0 -95 -38 -180.5t-100.5 -145t-146 -94.5t-172.5 -35q-143 0 -236.5 89t-93.5 229zM209 881q0 -114 73.5 -184t194.5 -70q156 0 271.5 112t115.5 271q0 114 -76 184t-198 70 q-156 0 -268.5 -111t-112.5 -272zM362 711l84 467h134q54 0 93.5 -33.5t39.5 -83.5q0 -51 -32.5 -89.5t-74.5 -51.5l88 -168l-65 -41l-97 196h-57l-37 -196h-76zM483 971h60q37 0 64.5 23t27.5 65q0 25 -19 39t-47 14h-59z" />
<glyph unicode="&#xaf;" horiz-adv-x="737" d="M330 1079l18 113h350l-18 -113h-350z" />
<glyph unicode="&#xb0;" horiz-adv-x="493" d="M156 1110q0 89 68.5 156t156.5 67q71 0 120.5 -47t49.5 -117q0 -91 -68.5 -157t-158.5 -66q-70 0 -119 47t-49 117zM236 1114q0 -42 26.5 -67t69.5 -25q57 0 97 42t40 101q0 41 -26.5 66.5t-67.5 25.5q-57 0 -98 -43t-41 -100z" />
<glyph unicode="&#xb1;" horiz-adv-x="1740" d="M84 827l18 101h148l6 37q40 235 169.5 352t324.5 117q95 0 153 -19l-24 -108q-47 16 -138 16q-139 0 -231.5 -87.5t-118.5 -244.5l-10 -63h493l11 61q42 226 186.5 351.5t374.5 125.5q148 0 233 -30l-217 -1225q-4 -32 -4 -43q0 -92 88 -115l-84 -84q-57 13 -95 62.5 t-38 128.5q0 28 6 63l199 1123q-45 10 -109 10q-161 0 -271 -99.5t-136 -244.5l-14 -84h237l-16 -101h-240l-145 -827h-129l145 827h-494l-145 -827h-131l147 827h-149z" />
<glyph unicode="&#xb2;" horiz-adv-x="729" d="M70 506l4 29q512 377 512 575q0 67 -44 102t-124 35q-99 0 -185 -51l-24 80q38 23 98 38t121 15q120 0 188 -59.5t68 -155.5q0 -217 -401 -526h350l-17 -82h-546z" />
<glyph unicode="&#xb3;" horiz-adv-x="649" d="M96 530v95q71 -47 170 -47q92 0 164 61.5t72 151.5q0 57 -39.5 94t-100.5 37q-20 0 -38 -7l-23 82q87 15 145 61.5t58 100.5q0 42 -30 65t-85 23q-77 0 -145 -39l-23 82q80 39 178 39q91 0 147 -47t56 -121q0 -53 -37.5 -101.5t-97.5 -76.5q56 -16 94.5 -67.5 t38.5 -118.5q0 -127 -95 -214t-247 -87q-101 0 -162 34z" />
<glyph unicode="&#xb4;" horiz-adv-x="737" d="M297 1128q260 71 426 213l4 -120q-152 -112 -369 -164z" />
<glyph unicode="&#xb5;" horiz-adv-x="1126" d="M-16 0l163 928h967l-164 -928h-966zM47 51h387q-76 36 -100 125l-164 572zM227 795l430 -365q-109 -39 -168 -107.5t-59 -138.5q0 -84 80 -133h395l133 744h-811z" />
<glyph unicode="&#xb6;" horiz-adv-x="835" d="M115 -381q93 16 168 86.5t94 179.5l133 756h-23q-138 0 -229.5 71t-91.5 199q0 95 38.5 174t101.5 128.5t141 76.5t161 27h291l-18 -103h-140l-237 -1339q-24 -129 -110.5 -222.5t-192.5 -119.5z" />
<glyph unicode="&#xb7;" horiz-adv-x="382" d="M94 545q0 29 43.5 75t71.5 46q24 0 51 -36.5t27 -66.5q0 -28 -44.5 -74.5t-72.5 -46.5q-24 0 -50 36t-26 67z" />
<glyph unicode="&#xb8;" horiz-adv-x="737" d="M31 -416l24 78q52 -41 131 -41q53 0 96.5 37.5t43.5 97.5q0 43 -32 68.5t-75 25.5q-31 0 -49 -2l66 156h63l-33 -78q61 -3 109.5 -50t48.5 -118q0 -68 -39 -119.5t-93 -75.5t-110 -24q-83 0 -151 45z" />
<glyph unicode="&#xb9;" horiz-adv-x="524" d="M203 1221l37 88l243 20l-145 -821h-96l129 725z" />
<glyph unicode="&#xba;" horiz-adv-x="944" d="M156 852q0 127 61.5 237t166.5 175t226 65q139 0 219 -82t80 -219q0 -191 -135.5 -332t-320.5 -141q-137 0 -217 80.5t-80 216.5zM268 860q0 -100 50.5 -153.5t148.5 -53.5q129 0 228.5 111.5t99.5 257.5q0 100 -49.5 154.5t-145.5 54.5q-131 0 -231.5 -112.5 t-100.5 -258.5zM350 301q0 28 41.5 69.5t67.5 41.5q23 0 46 -32.5t23 -62.5q0 -28 -41 -69t-67 -41q-23 0 -46.5 33t-23.5 61z" />
<glyph unicode="&#xbb;" horiz-adv-x="849" d="M8 299q93 150 266 274q-126 120 -170 273l86 67q35 -95 105.5 -187t161.5 -159q-112 -63 -215 -156t-174 -190zM397 299q96 150 265 274q-121 117 -168 273l86 67q37 -97 107 -188t159 -158q-111 -63 -213.5 -155.5t-175.5 -190.5z" />
<glyph unicode="&#xbc;" horiz-adv-x="1474" d="M25 23l1308 1323l64 -60l-1311 -1325zM203 1221l37 88l243 20l-145 -821h-96l129 725zM729 317l485 496h82l-86 -494h109l-14 -81h-109l-43 -238h-96l43 238h-361zM840 319h274l41 240q11 52 27 119l-4 2q-44 -55 -109 -123z" />
<glyph unicode="&#xbd;" horiz-adv-x="1605" d="M25 23l1308 1323l64 -60l-1311 -1325zM203 1221l37 88l243 20l-145 -821h-96l129 725zM858 0l4 27q512 380 512 577q0 67 -44 102t-124 35q-100 0 -184 -53l-25 82q38 23 98.5 38t121.5 15q120 0 188 -60t68 -157q0 -215 -402 -524h350l-16 -82h-547z" />
<glyph unicode="&#xbe;" horiz-adv-x="1566" d="M96 530v95q71 -47 170 -47q92 0 164 61.5t72 151.5q0 57 -39.5 94t-100.5 37q-20 0 -38 -7l-23 82q87 15 145 61.5t58 100.5q0 42 -30 65t-85 23q-77 0 -145 -39l-23 82q80 39 178 39q91 0 147 -47t56 -121q0 -53 -37.5 -101.5t-97.5 -76.5q56 -16 94.5 -67.5 t38.5 -118.5q0 -127 -95 -214t-247 -87q-101 0 -162 34zM135 23l1309 1323l63 -60l-1310 -1325zM838 317l485 496h82l-88 -494h110l-14 -81h-110l-41 -238h-97l43 238h-360zM948 319h275l41 240q16 78 26 119l-4 2q-50 -62 -108 -123z" />
<glyph unicode="&#xbf;" horiz-adv-x="784" d="M23 180q0 62 18.5 117t58 107.5t80 94t105.5 99.5q155 134 164 311q10 62 10 84l106 -28q0 -45 -4 -76q-9 -112 -60.5 -208.5t-133.5 -168.5q-97 -83 -152 -161t-55 -163q0 -77 53 -128.5t145 -51.5q137 0 254 101l23 -115q-56 -46 -133 -74.5t-160 -28.5 q-139 0 -229 80.5t-90 208.5zM451 1208q0 28 44 74.5t72 46.5q24 0 50 -36t26 -66q0 -29 -43.5 -75t-71.5 -46q-24 0 -50.5 36t-26.5 66z" />
<glyph unicode="&#xc0;" horiz-adv-x="1230" d="M-43 0l776 1333h43l305 -1333h-135l-84 373h-549l-215 -373h-141zM379 479h459l-88 402q-23 114 -33 200h-4q-45 -96 -107 -200zM489 1630l46 121q58 -72 151 -126.5t197 -86.5l-80 -72q-208 55 -314 164z" />
<glyph unicode="&#xc1;" horiz-adv-x="1230" d="M-43 0l776 1333h43l305 -1333h-135l-84 373h-549l-215 -373h-141zM379 479h459l-88 402q-23 114 -33 200h-4q-45 -96 -107 -200zM645 1538q260 71 426 213l4 -121q-153 -112 -368 -164z" />
<glyph unicode="&#xc2;" horiz-adv-x="1230" d="M-43 0l776 1333h43l305 -1333h-135l-84 373h-549l-215 -373h-141zM379 479h459l-88 402q-23 114 -33 200h-4q-45 -96 -107 -200zM512 1536q164 67 307 227q38 -74 95.5 -133.5t129.5 -93.5l-77 -70q-114 57 -172 142q-86 -82 -222 -142z" />
<glyph unicode="&#xc3;" horiz-adv-x="1230" d="M-43 0l776 1333h43l305 -1333h-135l-84 373h-549l-215 -373h-141zM379 479h459l-88 402q-23 114 -33 200h-4q-45 -96 -107 -200zM481 1491l43 106q157 91 295 99l12 -115q105 8 254 90l-43 -104q-144 -93 -294 -99l-13 113q-109 -8 -254 -90z" />
<glyph unicode="&#xc4;" horiz-adv-x="1230" d="M-43 0l776 1333h43l305 -1333h-135l-84 373h-549l-215 -373h-141zM379 479h459l-88 402q-23 114 -33 200h-4q-45 -96 -107 -200zM561 1563q0 27 41.5 68.5t67.5 41.5q24 0 46.5 -32.5t22.5 -61.5t-40.5 -70t-65.5 -41q-24 0 -48 32.5t-24 62.5zM846 1563q0 27 40.5 68.5 t65.5 41.5q24 0 48 -32.5t24 -61.5t-40.5 -70t-65.5 -41q-24 0 -48 32.5t-24 62.5z" />
<glyph unicode="&#xc5;" horiz-adv-x="1230" d="M-43 0l776 1333h43l305 -1333h-135l-84 373h-549l-215 -373h-141zM379 479h459l-88 402q-23 114 -33 200h-4q-45 -96 -107 -200zM600 1622q0 93 72.5 164.5t165.5 71.5q75 0 127.5 -51.5t52.5 -123.5q0 -97 -72 -167t-166 -70q-75 0 -127.5 51.5t-52.5 124.5zM688 1626 q0 -44 27 -70t71 -26q60 0 102 43.5t42 103.5q0 45 -27 71t-72 26q-59 0 -101 -44.5t-42 -103.5z" />
<glyph unicode="&#xc6;" horiz-adv-x="1638" d="M-55 0l987 1307h729l-19 -113h-542l-84 -477h444l-20 -113h-445l-86 -491h615l-21 -113h-751l67 383h-444l-291 -383h-139zM449 489h389l82 463q10 63 43 232l-5 2q-61 -97 -163 -238z" />
<glyph unicode="&#xc7;" horiz-adv-x="1224" d="M98 551q0 160 63.5 303.5t175 248t272 165.5t345.5 61q200 0 306 -45l-27 -119q-99 45 -287 45q-150 0 -283 -53t-225.5 -142t-146 -208.5t-53.5 -249.5q0 -106 38.5 -194t104.5 -145t151.5 -88.5t180.5 -31.5q97 0 195.5 26t170.5 73l-35 -144q-127 -73 -344 -76 l-22 -51q62 -3 110 -49.5t48 -118.5q0 -68 -39 -119.5t-93 -75.5t-110 -24q-85 0 -150 45l23 78q54 -41 131 -41q53 0 97 37.5t44 97.5q0 44 -32 69t-76 25q-31 0 -49 -2l55 132q-107 8 -203 49.5t-171.5 111.5t-120 176.5t-44.5 233.5z" />
<glyph unicode="&#xc8;" horiz-adv-x="940" d="M45 0l229 1307h682l-18 -113h-545l-84 -477h447l-21 -113h-446l-86 -491h616l-20 -113h-754zM365 1630l45 121q58 -72 151 -126.5t197 -86.5l-80 -72q-206 55 -313 164z" />
<glyph unicode="&#xc9;" horiz-adv-x="940" d="M45 0l229 1307h682l-18 -113h-545l-84 -477h447l-21 -113h-446l-86 -491h616l-20 -113h-754zM526 1538q260 71 426 213l4 -121q-153 -112 -368 -164z" />
<glyph unicode="&#xca;" horiz-adv-x="940" d="M45 0l229 1307h682l-18 -113h-545l-84 -477h447l-21 -113h-446l-86 -491h616l-20 -113h-754zM397 1536q165 67 308 227q38 -74 95.5 -133.5t129.5 -93.5l-78 -70q-114 57 -172 142q-87 -83 -221 -142z" />
<glyph unicode="&#xcb;" horiz-adv-x="940" d="M45 0l229 1307h682l-18 -113h-545l-84 -477h447l-21 -113h-446l-86 -491h616l-20 -113h-754zM438 1563q0 27 41 68.5t68 41.5q24 0 46.5 -32.5t22.5 -61.5t-40.5 -70t-65.5 -41q-24 0 -48 32.5t-24 62.5zM723 1563q0 27 40.5 68.5t65.5 41.5q24 0 48 -32.5t24 -61.5 t-40.5 -70t-65.5 -41q-24 0 -48 32.5t-24 62.5z" />
<glyph unicode="&#xcc;" horiz-adv-x="489" d="M80 0l229 1307h137l-229 -1307h-137zM166 1630l45 121q58 -72 151 -126.5t197 -86.5l-80 -72q-206 55 -313 164z" />
<glyph unicode="&#xcd;" horiz-adv-x="489" d="M80 0l229 1307h137l-229 -1307h-137zM246 1538q260 71 426 213l4 -121q-152 -112 -369 -164z" />
<glyph unicode="&#xce;" horiz-adv-x="489" d="M80 0l229 1307h137l-229 -1307h-137zM145 1536q165 67 308 227q38 -74 95.5 -133.5t129.5 -93.5l-78 -70q-114 57 -172 142q-87 -83 -221 -142z" />
<glyph unicode="&#xcf;" horiz-adv-x="489" d="M80 0l229 1307h137l-229 -1307h-137zM193 1563q0 28 41 69t67 41q24 0 47 -32.5t23 -61.5t-41 -70t-66 -41q-24 0 -47.5 32.5t-23.5 62.5zM477 1563q0 27 41 68.5t66 41.5q24 0 47.5 -32.5t23.5 -61.5t-40.5 -70t-65.5 -41q-24 0 -48 32.5t-24 62.5z" />
<glyph unicode="&#xd0;" horiz-adv-x="1327" d="M12 610l21 107h168l104 590h328q285 0 460 -146t175 -395q0 -161 -64 -303t-176 -244t-270.5 -160.5t-339.5 -58.5h-342l106 610h-170zM233 119h183q205 0 368 86.5t252.5 233.5t89.5 325q0 202 -142 313t-378 111h-184l-82 -471h285l-41 -107h-265z" />
<glyph unicode="&#xd1;" horiz-adv-x="1419" d="M45 0l229 1307h97l485 -701q162 -239 234 -354l6 2q32 232 53 350l125 703h137l-233 -1336h-37l-516 744q-109 159 -250 379l-4 -2q-21 -158 -60 -367l-129 -725h-137zM575 1491l43 106q157 91 295 99l13 -115q105 8 254 90l-43 -104q-144 -93 -295 -99l-13 113 q-109 -8 -254 -90z" />
<glyph unicode="&#xd2;" horiz-adv-x="1540" d="M96 543q0 166 67.5 314.5t178.5 250.5t256 161.5t297 59.5q162 0 295.5 -68.5t213 -198.5t79.5 -298q0 -166 -68 -314.5t-179.5 -251t-256.5 -162t-297 -59.5q-162 0 -295 69t-212 199t-79 298zM236 545q0 -200 130.5 -323.5t325.5 -123.5q121 0 239 52t208 140 t146 212.5t56 259.5q0 201 -130 324.5t-324 123.5q-122 0 -240 -52.5t-208.5 -140.5t-146.5 -212.5t-56 -259.5zM655 1630l45 121q58 -72 151.5 -126.5t197.5 -86.5l-80 -72q-208 55 -314 164z" />
<glyph unicode="&#xd3;" horiz-adv-x="1540" d="M96 543q0 166 67.5 314.5t178.5 250.5t256 161.5t297 59.5q162 0 295.5 -68.5t213 -198.5t79.5 -298q0 -166 -68 -314.5t-179.5 -251t-256.5 -162t-297 -59.5q-162 0 -295 69t-212 199t-79 298zM236 545q0 -200 130.5 -323.5t325.5 -123.5q121 0 239 52t208 140 t146 212.5t56 259.5q0 201 -130 324.5t-324 123.5q-122 0 -240 -52.5t-208.5 -140.5t-146.5 -212.5t-56 -259.5zM791 1538q260 71 426 213l4 -121q-152 -112 -369 -164z" />
<glyph unicode="&#xd4;" horiz-adv-x="1540" d="M96 543q0 166 67.5 314.5t178.5 250.5t256 161.5t297 59.5q162 0 295.5 -68.5t213 -198.5t79.5 -298q0 -166 -68 -314.5t-179.5 -251t-256.5 -162t-297 -59.5q-162 0 -295 69t-212 199t-79 298zM236 545q0 -200 130.5 -323.5t325.5 -123.5q121 0 239 52t208 140 t146 212.5t56 259.5q0 201 -130 324.5t-324 123.5q-122 0 -240 -52.5t-208.5 -140.5t-146.5 -212.5t-56 -259.5zM664 1536q164 67 307 227q38 -74 95.5 -133.5t129.5 -93.5l-78 -70q-114 57 -172 142q-87 -83 -221 -142z" />
<glyph unicode="&#xd5;" horiz-adv-x="1540" d="M96 543q0 166 67.5 314.5t178.5 250.5t256 161.5t297 59.5q162 0 295.5 -68.5t213 -198.5t79.5 -298q0 -166 -68 -314.5t-179.5 -251t-256.5 -162t-297 -59.5q-162 0 -295 69t-212 199t-79 298zM236 545q0 -200 130.5 -323.5t325.5 -123.5q121 0 239 52t208 140 t146 212.5t56 259.5q0 201 -130 324.5t-324 123.5q-122 0 -240 -52.5t-208.5 -140.5t-146.5 -212.5t-56 -259.5zM633 1491l43 106q157 91 295 99l12 -115q105 8 254 90l-43 -104q-144 -93 -295 -99l-12 113q-109 -8 -254 -90z" />
<glyph unicode="&#xd6;" horiz-adv-x="1540" d="M96 543q0 166 67.5 314.5t178.5 250.5t256 161.5t297 59.5q162 0 295.5 -68.5t213 -198.5t79.5 -298q0 -166 -68 -314.5t-179.5 -251t-256.5 -162t-297 -59.5q-162 0 -295 69t-212 199t-79 298zM236 545q0 -200 130.5 -323.5t325.5 -123.5q121 0 239 52t208 140 t146 212.5t56 259.5q0 201 -130 324.5t-324 123.5q-122 0 -240 -52.5t-208.5 -140.5t-146.5 -212.5t-56 -259.5zM709 1563q0 28 41 69t67 41q24 0 47 -32.5t23 -61.5t-41 -70t-66 -41q-24 0 -47.5 32.5t-23.5 62.5zM993 1563q0 27 41 68.5t66 41.5q24 0 47.5 -32.5 t23.5 -61.5t-40.5 -70t-65.5 -41q-24 0 -48 32.5t-24 62.5z" />
<glyph unicode="&#xd7;" horiz-adv-x="974" d="M125 299l303 258l-211 258l72 62l213 -259l305 261l55 -68l-303 -260l209 -254l-74 -61l-209 251l-303 -256z" />
<glyph unicode="&#xd8;" horiz-adv-x="1540" d="M86 4l154 156q-144 147 -144 383q0 166 67.5 314.5t178.5 250.5t256 161.5t297 59.5q222 0 379 -123l158 158l61 -61l-154 -158q144 -150 144 -381q0 -166 -68 -314.5t-179.5 -251t-256.5 -162t-297 -59.5q-218 0 -379 123l-153 -155zM236 545q0 -170 98 -289l846 856 q-121 98 -293 98q-122 0 -240 -52.5t-208.5 -140.5t-146.5 -212.5t-56 -259.5zM397 195q124 -97 295 -97q121 0 239 52t208 140t146 212.5t56 259.5q0 172 -98 287z" />
<glyph unicode="&#xd9;" horiz-adv-x="1302" d="M117 360q0 53 8 97l149 850h138l-148 -846q-10 -57 -8 -88q0 -131 81.5 -202t231.5 -71q177 0 295.5 97.5t149.5 267.5l147 842h133l-149 -854q-41 -228 -197 -352t-387 -124q-200 0 -322 102t-122 281zM526 1630l45 121q58 -72 151.5 -126.5t197.5 -86.5l-80 -72 q-208 55 -314 164z" />
<glyph unicode="&#xda;" horiz-adv-x="1302" d="M117 360q0 53 8 97l149 850h138l-148 -846q-10 -57 -8 -88q0 -131 81.5 -202t231.5 -71q177 0 295.5 97.5t149.5 267.5l147 842h133l-149 -854q-41 -228 -197 -352t-387 -124q-200 0 -322 102t-122 281zM700 1538q260 71 426 213l4 -121q-153 -112 -368 -164z" />
<glyph unicode="&#xdb;" horiz-adv-x="1302" d="M117 360q0 53 8 97l149 850h138l-148 -846q-10 -57 -8 -88q0 -131 81.5 -202t231.5 -71q177 0 295.5 97.5t149.5 267.5l147 842h133l-149 -854q-41 -228 -197 -352t-387 -124q-200 0 -322 102t-122 281zM551 1536q164 67 307 227q38 -74 95.5 -133.5t129.5 -93.5l-77 -70 q-114 57 -172 142q-86 -82 -222 -142z" />
<glyph unicode="&#xdc;" horiz-adv-x="1302" d="M117 360q0 53 8 97l149 850h138l-148 -846q-10 -57 -8 -88q0 -131 81.5 -202t231.5 -71q177 0 295.5 97.5t149.5 267.5l147 842h133l-149 -854q-41 -228 -197 -352t-387 -124q-200 0 -322 102t-122 281zM602 1563q0 27 41 68.5t68 41.5q24 0 46.5 -32.5t22.5 -61.5 t-40.5 -70t-65.5 -41q-24 0 -48 32.5t-24 62.5zM887 1563q0 27 40.5 68.5t65.5 41.5q24 0 48 -32.5t24 -61.5t-41 -70t-66 -41q-24 0 -47.5 32.5t-23.5 62.5z" />
<glyph unicode="&#xdd;" horiz-adv-x="1183" d="M158 1307h145l211 -400q59 -110 100 -198h4q31 37 96 110.5t77 87.5l352 400h149l-624 -703l-107 -604h-135l106 604zM612 1538q260 71 426 213l4 -121q-153 -112 -368 -164z" />
<glyph unicode="&#xde;" horiz-adv-x="925" d="M45 0l229 1311h138l-27 -156h223q142 0 236 -87t94 -222q0 -114 -61 -206.5t-162 -143t-219 -50.5h-236l-78 -446h-137zM283 565h213q124 0 215.5 83t91.5 196q0 89 -66 140.5t-166 51.5h-206z" />
<glyph unicode="&#xdf;" horiz-adv-x="1058" d="M45 0l174 1001q40 226 161 345.5t294 119.5q144 0 227.5 -80t83.5 -221q0 -170 -100 -317q-76 0 -135 -16t-98.5 -57t-39.5 -103q0 -43 23.5 -72.5t81.5 -56.5q120 -51 169.5 -110t49.5 -152q0 -128 -107 -214.5t-272 -86.5q-131 0 -219 40l20 113q77 -43 211 -43 q101 0 168.5 50.5t67.5 131.5q0 48 -24.5 83.5t-86.5 64.5q-110 46 -158.5 101.5t-48.5 133.5q0 71 28.5 127.5t75 90.5t99 52.5t107.5 20.5q25 40 43 100t18 121q0 81 -48 135t-144 54q-117 0 -200.5 -94t-109.5 -236l-182 -1026h-129z" />
<glyph unicode="&#xe0;" d="M43 274q0 145 57 270.5t151.5 209.5t216 132t249.5 48q149 0 237 -16l-161 -918h-111l45 276l-6 3q-58 -136 -166.5 -216.5t-230.5 -80.5q-119 0 -200 77.5t-81 214.5zM174 281q0 -91 46.5 -141t127.5 -50q59 0 122.5 34.5t123 99.5t107.5 170t71 233l35 192 q-34 6 -100 6q-102 0 -199 -42t-170.5 -113t-118.5 -173.5t-45 -215.5zM479 1225l39 104q98 -123 297 -182l-70 -62q-174 48 -266 140z" />
<glyph unicode="&#xe1;" d="M43 274q0 145 57 270.5t151.5 209.5t216 132t249.5 48q149 0 237 -16l-161 -918h-111l45 276l-6 3q-58 -136 -166.5 -216.5t-230.5 -80.5q-119 0 -200 77.5t-81 214.5zM174 281q0 -91 46.5 -141t127.5 -50q59 0 122.5 34.5t123 99.5t107.5 170t71 233l35 192 q-34 6 -100 6q-102 0 -199 -42t-170.5 -113t-118.5 -173.5t-45 -215.5zM575 1147q222 61 363 182l2 -104q-130 -95 -313 -140z" />
<glyph unicode="&#xe2;" d="M43 274q0 145 57 270.5t151.5 209.5t216 132t249.5 48q149 0 237 -16l-161 -918h-111l45 276l-6 3q-58 -136 -166.5 -216.5t-230.5 -80.5q-119 0 -200 77.5t-81 214.5zM174 281q0 -91 46.5 -141t127.5 -50q59 0 122.5 34.5t123 99.5t107.5 170t71 233l35 192 q-34 6 -100 6q-102 0 -199 -42t-170.5 -113t-118.5 -173.5t-45 -215.5zM453 1145q140 58 262 194q67 -134 190 -194l-65 -58q-99 49 -148 119q-70 -68 -186 -119z" />
<glyph unicode="&#xe3;" d="M43 274q0 145 57 270.5t151.5 209.5t216 132t249.5 48q149 0 237 -16l-161 -918h-111l45 276l-6 3q-58 -136 -166.5 -216.5t-230.5 -80.5q-119 0 -200 77.5t-81 214.5zM174 281q0 -91 46.5 -141t127.5 -50q59 0 122.5 34.5t123 99.5t107.5 170t71 233l35 192 q-34 6 -100 6q-102 0 -199 -42t-170.5 -113t-118.5 -173.5t-45 -215.5zM420 1108l35 90q134 76 252 84l10 -98q91 8 215 78l-37 -91q-118 -78 -250 -84l-10 97q-85 -5 -215 -76z" />
<glyph unicode="&#xe4;" d="M43 274q0 145 57 270.5t151.5 209.5t216 132t249.5 48q149 0 237 -16l-161 -918h-111l45 276l-6 3q-58 -136 -166.5 -216.5t-230.5 -80.5q-119 0 -200 77.5t-81 214.5zM174 281q0 -91 46.5 -141t127.5 -50q59 0 122.5 34.5t123 99.5t107.5 170t71 233l35 192 q-34 6 -100 6q-102 0 -199 -42t-170.5 -113t-118.5 -173.5t-45 -215.5zM487 1169q0 23 35.5 58t57.5 35q21 0 40 -27t19 -53q0 -24 -34 -59.5t-56 -35.5q-20 0 -41 28t-21 54zM731 1169q0 23 34 58t56 35q20 0 40 -27.5t20 -52.5q0 -24 -34 -59.5t-56 -35.5q-20 0 -40 27.5 t-20 54.5z" />
<glyph unicode="&#xe5;" d="M43 274q0 145 57 270.5t151.5 209.5t216 132t249.5 48q149 0 237 -16l-161 -918h-111l45 276l-6 3q-58 -136 -166.5 -216.5t-230.5 -80.5q-119 0 -200 77.5t-81 214.5zM174 281q0 -91 46.5 -141t127.5 -50q59 0 122.5 34.5t123 99.5t107.5 170t71 233l35 192 q-34 6 -100 6q-102 0 -199 -42t-170.5 -113t-118.5 -173.5t-45 -215.5zM530 1219q0 79 61.5 139.5t139.5 60.5q64 0 109 -42.5t45 -104.5q0 -83 -61.5 -143t-141.5 -60q-63 0 -107.5 43.5t-44.5 106.5zM604 1223q0 -38 23 -60t61 -22q51 0 87 37t36 88q0 39 -23 60.5 t-61 21.5q-50 0 -86.5 -37.5t-36.5 -87.5z" />
<glyph unicode="&#xe6;" horiz-adv-x="1492" d="M57 221q0 70 30 130.5t80 101t111.5 65.5t127.5 31l256 24l12 62q2 14 2 39q0 162 -189 162q-65 0 -132.5 -21.5t-112.5 -54.5l-31 108q54 38 133.5 59t159.5 21q114 0 189 -49t98 -147q78 92 188 144t215 52q114 0 178 -55.5t64 -153.5q0 -114 -88.5 -206t-241.5 -142.5 t-340 -50.5q6 -117 77 -181.5t191 -64.5q139 0 250 94l-39 -147q-85 -61 -223 -61q-125 0 -217 55.5t-131 161.5q-59 -101 -157 -159t-193 -58q-118 0 -192.5 69.5t-74.5 171.5zM182 231q0 -63 42 -102t110 -39q90 0 178 68.5t106 171.5l25 135l-235 -21q-97 -11 -161.5 -71 t-64.5 -142zM772 442q110 0 210.5 25t170 64.5t111 89.5t41.5 100q0 113 -121 113q-83 0 -172.5 -49.5t-158 -142t-81.5 -200.5z" />
<glyph unicode="&#xe7;" horiz-adv-x="862" d="M55 330q0 102 35 197.5t97.5 170.5t143 132t177 87.5t194.5 30.5q86 0 146 -14l-27 -109q-43 11 -129 11q-98 0 -192 -43t-162 -111.5t-110 -158.5t-42 -181q0 -109 67.5 -178.5t178.5 -69.5q81 0 160 28.5t133 82.5l-37 -142q-76 -73 -237 -83l-19 -41q51 -3 92 -43.5 t41 -100.5q0 -86 -65 -136t-142 -50q-76 0 -127 39l21 65q43 -35 110 -35q45 0 82 32t37 83q0 36 -27 58t-63 22q-27 0 -43 -2l47 109q-66 2 -126.5 26t-108.5 67t-76.5 109.5t-28.5 147.5z" />
<glyph unicode="&#xe8;" horiz-adv-x="933" d="M72 375q0 96 34 186.5t91.5 159t129.5 121t152 79.5t156 27q112 0 175.5 -55.5t63.5 -153.5q0 -114 -88 -206t-240.5 -142.5t-338.5 -50.5q4 -117 75.5 -181.5t192.5 -64.5q139 0 250 94l-41 -147q-85 -61 -221 -61q-175 0 -283 102.5t-108 292.5zM211 442 q110 0 210.5 25t170.5 64.5t111.5 89.5t41.5 100q0 113 -120 113q-83 0 -172.5 -50t-158.5 -142.5t-83 -199.5zM426 1225l39 104q97 -122 295 -182l-68 -62q-174 48 -266 140z" />
<glyph unicode="&#xe9;" horiz-adv-x="933" d="M72 375q0 96 34 186.5t91.5 159t129.5 121t152 79.5t156 27q112 0 175.5 -55.5t63.5 -153.5q0 -114 -88 -206t-240.5 -142.5t-338.5 -50.5q4 -117 75.5 -181.5t192.5 -64.5q139 0 250 94l-41 -147q-85 -61 -221 -61q-175 0 -283 102.5t-108 292.5zM211 442 q110 0 210.5 25t170.5 64.5t111.5 89.5t41.5 100q0 113 -120 113q-83 0 -172.5 -50t-158.5 -142.5t-83 -199.5zM532 1147q223 61 361 182l4 -104q-130 -95 -313 -140z" />
<glyph unicode="&#xea;" horiz-adv-x="933" d="M72 375q0 96 34 186.5t91.5 159t129.5 121t152 79.5t156 27q112 0 175.5 -55.5t63.5 -153.5q0 -114 -88 -206t-240.5 -142.5t-338.5 -50.5q4 -117 75.5 -181.5t192.5 -64.5q139 0 250 94l-41 -147q-85 -61 -221 -61q-175 0 -283 102.5t-108 292.5zM211 442 q110 0 210.5 25t170.5 64.5t111.5 89.5t41.5 100q0 113 -120 113q-83 0 -172.5 -50t-158.5 -142.5t-83 -199.5zM410 1145q140 58 262 194q67 -134 190 -194l-65 -58q-99 49 -148 119q-70 -68 -186 -119z" />
<glyph unicode="&#xeb;" horiz-adv-x="933" d="M72 375q0 96 34 186.5t91.5 159t129.5 121t152 79.5t156 27q112 0 175.5 -55.5t63.5 -153.5q0 -114 -88 -206t-240.5 -142.5t-338.5 -50.5q4 -117 75.5 -181.5t192.5 -64.5q139 0 250 94l-41 -147q-85 -61 -221 -61q-175 0 -283 102.5t-108 292.5zM211 442 q110 0 210.5 25t170.5 64.5t111.5 89.5t41.5 100q0 113 -120 113q-83 0 -172.5 -50t-158.5 -142.5t-83 -199.5zM438 1169q0 23 34.5 58t57.5 35q20 0 40 -27.5t20 -52.5q0 -24 -34.5 -59.5t-55.5 -35.5t-41.5 27.5t-20.5 54.5zM680 1169q0 23 34.5 58t55.5 35t41 -27t20 -53 q0 -24 -34.5 -59.5t-55.5 -35.5t-41 27.5t-20 54.5z" />
<glyph unicode="&#xec;" horiz-adv-x="471" d="M74 0l164 928h131l-164 -928h-131zM111 1225l39 104q97 -122 294 -182l-67 -62q-174 48 -266 140z" />
<glyph unicode="&#xed;" horiz-adv-x="471" d="M74 0l164 928h131l-164 -928h-131zM207 1147q221 60 362 182l2 -104q-130 -95 -313 -140z" />
<glyph unicode="&#xee;" horiz-adv-x="471" d="M74 0l164 928h131l-164 -928h-131zM109 1145q143 61 260 194q71 -135 192 -194l-65 -58q-99 49 -148 119q-71 -69 -188 -119z" />
<glyph unicode="&#xef;" horiz-adv-x="471" d="M74 0l164 928h131l-164 -928h-131zM152 1169q0 23 34.5 58t57.5 35q20 0 39.5 -27.5t19.5 -52.5q0 -24 -35 -59.5t-57 -35.5q-20 0 -39.5 27.5t-19.5 54.5zM393 1169q0 23 34 58t56 35q21 0 41.5 -27.5t20.5 -52.5q0 -24 -35 -59.5t-57 -35.5q-20 0 -40 27.5t-20 54.5z " />
<glyph unicode="&#xf0;" horiz-adv-x="1013" d="M43 330q0 173 104.5 297.5t282.5 185.5q112 39 272 43q-45 137 -133 287l-172 -90l-47 94l166 86q-62 101 -158 225h148q67 -81 121 -168l159 84l48 -94l-152 -78q101 -171 164 -353t63 -339q0 -124 -41.5 -226t-111.5 -168.5t-161.5 -102.5t-193.5 -36 q-158 0 -258 100.5t-100 252.5zM174 336q0 -109 65 -176.5t171 -67.5q149 0 259.5 117t110.5 303q0 111 -45 231q-165 -5 -258 -38q-146 -51 -224.5 -147.5t-78.5 -221.5z" />
<glyph unicode="&#xf1;" d="M25 0l163 928h111l-45 -277l6 -2q30 57 66 105.5t86.5 94.5t116.5 72.5t141 26.5q106 0 178 -64t72 -177q0 -24 -7 -64l-112 -643h-129l112 647q4 16 4 47q0 66 -37 106t-104 40q-144 0 -271.5 -155t-176.5 -433l-45 -252h-129zM365 1108l36 90q134 76 252 84l11 -98 q91 8 215 78l-37 -91q-118 -78 -250 -84l-10 97q-87 -5 -217 -76z" />
<glyph unicode="&#xf2;" horiz-adv-x="1099" d="M66 352q0 118 46 228.5t122 191t181 128.5t218 48q170 0 269 -102.5t99 -272.5q0 -118 -46 -228t-122 -189.5t-181 -127.5t-218 -48q-171 0 -269.5 101t-98.5 271zM197 362q0 -127 65 -197.5t189 -70.5q107 0 204.5 66t156 174.5t58.5 228.5q0 127 -65 199t-187 72 q-108 0 -206 -66.5t-156.5 -176t-58.5 -229.5zM442 1225l39 104q97 -122 295 -182l-67 -62q-175 48 -267 140z" />
<glyph unicode="&#xf3;" horiz-adv-x="1099" d="M66 352q0 118 46 228.5t122 191t181 128.5t218 48q170 0 269 -102.5t99 -272.5q0 -118 -46 -228t-122 -189.5t-181 -127.5t-218 -48q-171 0 -269.5 101t-98.5 271zM197 362q0 -127 65 -197.5t189 -70.5q107 0 204.5 66t156 174.5t58.5 228.5q0 127 -65 199t-187 72 q-108 0 -206 -66.5t-156.5 -176t-58.5 -229.5zM549 1147q223 60 362 182l4 -104q-132 -95 -313 -140z" />
<glyph unicode="&#xf4;" horiz-adv-x="1099" d="M66 352q0 118 46 228.5t122 191t181 128.5t218 48q170 0 269 -102.5t99 -272.5q0 -118 -46 -228t-122 -189.5t-181 -127.5t-218 -48q-171 0 -269.5 101t-98.5 271zM197 362q0 -127 65 -197.5t189 -70.5q107 0 204.5 66t156 174.5t58.5 228.5q0 127 -65 199t-187 72 q-108 0 -206 -66.5t-156.5 -176t-58.5 -229.5zM442 1145q143 61 260 194q70 -134 193 -194l-66 -58q-97 48 -147 119q-71 -69 -188 -119z" />
<glyph unicode="&#xf5;" horiz-adv-x="1099" d="M66 352q0 118 46 228.5t122 191t181 128.5t218 48q170 0 269 -102.5t99 -272.5q0 -118 -46 -228t-122 -189.5t-181 -127.5t-218 -48q-171 0 -269.5 101t-98.5 271zM197 362q0 -127 65 -197.5t189 -70.5q107 0 204.5 66t156 174.5t58.5 228.5q0 127 -65 199t-187 72 q-108 0 -206 -66.5t-156.5 -176t-58.5 -229.5zM432 1108l35 90q134 76 252 84l10 -98q91 8 215 78l-37 -91q-118 -78 -250 -84l-10 97q-85 -5 -215 -76z" />
<glyph unicode="&#xf6;" horiz-adv-x="1099" d="M66 352q0 118 46 228.5t122 191t181 128.5t218 48q170 0 269 -102.5t99 -272.5q0 -118 -46 -228t-122 -189.5t-181 -127.5t-218 -48q-171 0 -269.5 101t-98.5 271zM197 362q0 -127 65 -197.5t189 -70.5q107 0 204.5 66t156 174.5t58.5 228.5q0 127 -65 199t-187 72 q-108 0 -206 -66.5t-156.5 -176t-58.5 -229.5zM483 1169q0 23 34.5 58t57.5 35q20 0 40 -27.5t20 -52.5q0 -24 -34.5 -59.5t-55.5 -35.5t-41.5 27.5t-20.5 54.5zM725 1169q0 23 34.5 58t55.5 35t41.5 -27.5t20.5 -52.5q0 -24 -35 -59.5t-56 -35.5t-41 27.5t-20 54.5z" />
<glyph unicode="&#xf7;" horiz-adv-x="948" d="M86 518l18 105h766l-18 -105h-766zM348 322q1 27 40.5 66.5t64.5 39.5t47 -34.5t20 -63.5q-1 -28 -40 -67.5t-64 -39.5q-24 0 -47 35.5t-21 63.5zM434 813q1 28 40.5 67.5t64.5 39.5t47 -34.5t20 -64.5q-2 -28 -40 -67t-64 -39q-24 0 -47.5 35.5t-20.5 62.5z" />
<glyph unicode="&#xf8;" horiz-adv-x="1099" d="M43 2l98 104q-75 96 -75 246q0 118 46 228.5t122 191t181 128.5t218 48q143 0 235 -71l107 112l61 -57l-110 -115q75 -93 75 -244q0 -118 -46 -228t-122 -189.5t-181 -127.5t-218 -48q-138 0 -233 67l-99 -102zM197 362q0 -94 43 -155l540 577q-62 50 -162 50 q-108 0 -206 -66.5t-156.5 -176t-58.5 -229.5zM289 139q64 -45 162 -45q107 0 204.5 66t156 174.5t58.5 228.5q0 97 -39 156z" />
<glyph unicode="&#xf9;" d="M70 221q0 30 6 64l112 643h129l-112 -647q-4 -18 -4 -50q0 -65 37 -104t104 -39q144 0 272 155t177 433l45 252h129l-164 -928h-111l45 276l-6 3q-30 -57 -66 -105.5t-86.5 -94.5t-116.5 -72.5t-141 -26.5q-106 0 -177.5 64t-71.5 177zM369 1225l39 104q97 -122 294 -182 l-67 -62q-174 48 -266 140z" />
<glyph unicode="&#xfa;" d="M70 221q0 30 6 64l112 643h129l-112 -647q-4 -18 -4 -50q0 -65 37 -104t104 -39q144 0 272 155t177 433l45 252h129l-164 -928h-111l45 276l-6 3q-30 -57 -66 -105.5t-86.5 -94.5t-116.5 -72.5t-141 -26.5q-106 0 -177.5 64t-71.5 177zM522 1147q223 61 361 182l4 -104 q-129 -95 -314 -140z" />
<glyph unicode="&#xfb;" d="M70 221q0 30 6 64l112 643h129l-112 -647q-4 -18 -4 -50q0 -65 37 -104t104 -39q144 0 272 155t177 433l45 252h129l-164 -928h-111l45 276l-6 3q-30 -57 -66 -105.5t-86.5 -94.5t-116.5 -72.5t-141 -26.5q-106 0 -177.5 64t-71.5 177zM395 1145q140 58 262 194 q67 -133 191 -194l-66 -58q-98 48 -145 119q-76 -71 -188 -119z" />
<glyph unicode="&#xfc;" d="M70 221q0 30 6 64l112 643h129l-112 -647q-4 -18 -4 -50q0 -65 37 -104t104 -39q144 0 272 155t177 433l45 252h129l-164 -928h-111l45 276l-6 3q-30 -57 -66 -105.5t-86.5 -94.5t-116.5 -72.5t-141 -26.5q-106 0 -177.5 64t-71.5 177zM432 1169q0 23 35 58t57 35 q21 0 40.5 -27t19.5 -53q0 -24 -34 -59.5t-56 -35.5q-21 0 -41.5 27.5t-20.5 54.5zM674 1169q0 23 35 58t57 35q20 0 39.5 -27.5t19.5 -52.5q0 -24 -34 -59.5t-56 -35.5q-21 0 -41 27.5t-20 54.5z" />
<glyph unicode="&#xfd;" horiz-adv-x="968" d="M-127 -397q247 121 457 467l-211 858h133l117 -473q50 -215 53 -232h4q5 10 137 234l283 471h141l-510 -848q-142 -236 -270 -366t-254 -191zM508 1147q221 60 362 182l2 -104q-130 -95 -313 -140z" />
<glyph unicode="&#xfe;" horiz-adv-x="1042" d="M-49 -473l342 1931h129l-137 -766l6 -2q56 112 158.5 184t230.5 72q118 0 200.5 -85.5t82.5 -233.5q0 -138 -54 -259t-143.5 -204.5t-207 -131.5t-243.5 -48q-83 0 -149 16l-86 -473h-129zM186 121q59 -23 142 -23q98 0 190 40t161 109t110.5 167.5t41.5 208.5 q0 98 -50.5 153t-137.5 55q-61 0 -125 -35t-124 -99.5t-107.5 -169.5t-69.5 -232z" />
<glyph unicode="&#xff;" horiz-adv-x="968" d="M-127 -397q247 121 457 467l-211 858h133l117 -473q50 -215 53 -232h4q5 10 137 234l283 471h141l-510 -848q-142 -236 -270 -366t-254 -191zM389 1161q0 24 35 59t57 35q21 0 40.5 -27.5t19.5 -51.5t-34.5 -59.5t-55.5 -35.5t-41.5 27.5t-20.5 52.5zM631 1161 q0 24 34.5 59t55.5 35t41 -27.5t20 -51.5t-34 -59.5t-56 -35.5q-21 0 -41 27t-20 53z" />
<glyph unicode="&#x152;" horiz-adv-x="1955" d="M96 543q0 166 67.5 314.5t178.5 250.5t256 161.5t297 59.5q229 0 383 -129l18 107h682l-18 -113h-545l-84 -477h447l-21 -113h-446l-86 -491h616l-20 -113h-754l16 90q-190 -113 -401 -113q-162 0 -295 69t-212 199t-79 298zM236 545q0 -200 130.5 -323.5t325.5 -123.5 q112 0 221.5 44.5t200.5 123.5l137 776q-63 80 -158.5 124t-205.5 44q-122 0 -240 -52.5t-208.5 -140.5t-146.5 -212.5t-56 -259.5z" />
<glyph unicode="&#x153;" horiz-adv-x="1712" d="M66 352q0 118 46 228.5t122 191t181 128.5t218 48q132 0 219.5 -63.5t122.5 -173.5q81 108 201.5 172.5t236.5 64.5q113 0 176.5 -55.5t63.5 -153.5q0 -114 -88 -206t-240.5 -142.5t-339.5 -50.5q6 -118 76.5 -182t191.5 -64q139 0 250 94l-39 -147q-85 -61 -223 -61 q-133 0 -228 61.5t-132 181.5q-77 -111 -195 -177t-252 -66q-171 0 -269.5 101t-98.5 271zM197 362q0 -127 65 -197.5t189 -70.5q107 0 204.5 66t156 174.5t58.5 228.5q0 127 -65 199t-187 72q-108 0 -206 -66.5t-156.5 -176t-58.5 -229.5zM989 442q110 0 211 25t171 64.5 t111.5 89.5t41.5 100q0 113 -121 113q-83 0 -172.5 -50t-158.5 -142.5t-83 -199.5z" />
<glyph unicode="&#x178;" horiz-adv-x="1183" d="M158 1307h145l211 -400q59 -110 100 -198h4q31 37 96 110.5t77 87.5l352 400h149l-624 -703l-107 -604h-135l106 604zM522 1563q0 27 41 68.5t68 41.5q24 0 46.5 -32.5t22.5 -61.5t-40.5 -70t-65.5 -41q-24 0 -48 32.5t-24 62.5zM807 1563q0 27 40.5 68.5t65.5 41.5 q24 0 48 -32.5t24 -61.5t-40.5 -70t-65.5 -41q-24 0 -48 32.5t-24 62.5z" />
<glyph unicode="&#x2c6;" horiz-adv-x="737" d="M242 1126q162 66 307 228q81 -159 225 -228l-78 -69q-115 58 -172 141q-85 -81 -221 -141z" />
<glyph unicode="&#x2dc;" horiz-adv-x="737" d="M219 1081l43 107q155 90 295 98l12 -115q103 8 254 91l-43 -105q-142 -92 -295 -98l-12 112q-109 -8 -254 -90z" />
<glyph unicode="&#x2000;" horiz-adv-x="929" />
<glyph unicode="&#x2001;" horiz-adv-x="1858" />
<glyph unicode="&#x2002;" horiz-adv-x="929" />
<glyph unicode="&#x2003;" horiz-adv-x="1858" />
<glyph unicode="&#x2004;" horiz-adv-x="619" />
<glyph unicode="&#x2005;" horiz-adv-x="464" />
<glyph unicode="&#x2006;" horiz-adv-x="309" />
<glyph unicode="&#x2007;" horiz-adv-x="309" />
<glyph unicode="&#x2008;" horiz-adv-x="232" />
<glyph unicode="&#x2009;" horiz-adv-x="371" />
<glyph unicode="&#x200a;" horiz-adv-x="103" />
<glyph unicode="&#x2010;" horiz-adv-x="692" d="M86 518l18 105h512l-18 -105h-512z" />
<glyph unicode="&#x2011;" horiz-adv-x="692" d="M86 518l18 105h512l-18 -105h-512z" />
<glyph unicode="&#x2012;" horiz-adv-x="692" d="M86 518l18 105h512l-18 -105h-512z" />
<glyph unicode="&#x2013;" horiz-adv-x="1204" d="M86 518l18 105h1024l-18 -105h-1024z" />
<glyph unicode="&#x2014;" horiz-adv-x="1716" d="M86 518l18 105h1536l-18 -105h-1536z" />
<glyph unicode="&#x2018;" horiz-adv-x="382" d="M195 1120q0 52 73 158.5t156 179.5l57 -8q-55 -57 -97 -120t-54 -107q20 -6 39.5 -33t19.5 -51q0 -29 -45 -75t-72 -46q-22 0 -49.5 36t-27.5 66z" />
<glyph unicode="&#x2019;" horiz-adv-x="382" d="M143 1036q55 57 97.5 120.5t54.5 107.5q-20 6 -39.5 33t-19.5 51q0 29 44.5 74.5t71.5 45.5q22 0 50 -36t28 -68q0 -52 -73 -157t-156 -179z" />
<glyph unicode="&#x201a;" horiz-adv-x="382" d="M-78 -227q56 57 98 120t54 107q-20 6 -40 33t-20 51q0 29 45 75t72 46q22 0 50 -36.5t28 -68.5q0 -52 -73 -157t-156 -179z" />
<glyph unicode="&#x201c;" horiz-adv-x="661" d="M197 1120q0 52 72 158.5t155 179.5l59 -8q-56 -58 -98.5 -120.5t-54.5 -106.5q20 -6 39.5 -33t19.5 -51q0 -29 -45 -75t-70 -46q-22 0 -49.5 36t-27.5 66zM516 1122q0 52 72 157.5t155 178.5l60 -8q-56 -58 -99 -120.5t-55 -106.5q20 -5 40 -32t20 -52q0 -29 -45 -75 t-70 -46q-22 0 -50 36t-28 68z" />
<glyph unicode="&#x201d;" horiz-adv-x="700" d="M143 1036q55 57 97.5 120.5t54.5 107.5q-20 6 -39.5 33t-19.5 51q0 29 44.5 74.5t71.5 45.5q22 0 50 -36t28 -68q0 -52 -73 -157t-156 -179zM463 1036q56 59 97.5 121.5t53.5 106.5q-20 6 -39.5 33t-19.5 51q0 29 45 74.5t72 45.5q22 0 50 -35.5t28 -66.5 q0 -52 -73.5 -158.5t-156.5 -179.5z" />
<glyph unicode="&#x201e;" horiz-adv-x="700" d="M-78 -227q56 57 98 120t54 107q-20 6 -40 33t-20 51q0 29 45 75t72 46q22 0 50 -36.5t28 -68.5q0 -52 -73 -157t-156 -179zM242 -227q55 57 97 120t54 107q-20 6 -39.5 33t-19.5 51q0 29 45 75t72 46q22 0 49.5 -36.5t27.5 -68.5q0 -52 -73 -157t-156 -179z" />
<glyph unicode="&#x2022;" horiz-adv-x="735" d="M111 506q0 135 93.5 233.5t221.5 98.5q95 0 151 -57t56 -152q0 -135 -94 -232.5t-222 -97.5q-95 0 -150.5 56.5t-55.5 150.5z" />
<glyph unicode="&#x2026;" horiz-adv-x="1050" d="M12 82q0 30 44 76.5t71 46.5q25 0 52.5 -37.5t27.5 -67.5q0 -28 -45.5 -74t-73.5 -46q-24 0 -50 36t-26 66zM348 82q0 30 44 76.5t71 46.5q25 0 52.5 -37.5t27.5 -67.5q0 -28 -45.5 -74t-73.5 -46q-24 0 -50 36t-26 66zM684 82q0 30 44 76.5t71 46.5q25 0 52.5 -37.5 t27.5 -67.5q0 -28 -45.5 -74t-73.5 -46q-24 0 -50 36t-26 66z" />
<glyph unicode="&#x202f;" horiz-adv-x="371" />
<glyph unicode="&#x2039;" horiz-adv-x="462" d="M14 567q112 67 214 158.5t173 187.5l62 -77q-110 -164 -268 -275q127 -120 172 -272l-88 -68q-38 98 -108 190.5t-157 155.5z" />
<glyph unicode="&#x203a;" horiz-adv-x="462" d="M8 299q99 152 266 272q-123 116 -170 275l86 67q37 -96 107 -187.5t160 -158.5q-111 -63 -213.5 -155.5t-175.5 -190.5z" />
<glyph unicode="&#x205f;" horiz-adv-x="464" />
<glyph unicode="&#x2122;" horiz-adv-x="851" d="M176 1253l10 54h287l-8 -54h-115l-57 -325h-60l58 325h-115zM434 928l96 379h37l84 -289l193 289h39l-37 -379h-58l29 254l-170 -256h-20l-74 254l-64 -252h-55z" />
<glyph unicode="&#x25fc;" horiz-adv-x="931" d="M0 0v932h932v-932h-932z" />
<glyph unicode="&#xfb01;" horiz-adv-x="1048" d="M84 827l18 101h148l12 63q41 232 171 353.5t323 121.5q98 0 153 -18l-24 -109q-47 17 -137 17q-135 0 -229 -89.5t-122 -242.5l-16 -96h561l-164 -928h-129l146 827h-433l-145 -827h-131l147 827h-149z" />
<glyph unicode="&#xfb02;" horiz-adv-x="1118" d="M84 827l18 101h148l12 61q40 225 185 351t376 126q149 0 234 -30l-217 -1225q-4 -32 -4 -43q0 -91 86 -115l-82 -84q-57 13 -95 62.5t-38 128.5q0 28 6 63l196 1123q-42 10 -106 10q-162 0 -272 -99.5t-136 -244.5l-14 -84h237l-18 -101h-238l-145 -827h-131l147 827 h-149z" />
</font>
</defs>
</svg>
