<?xml version="1.0" standalone="no"?>
<!DOCTYPE svg PUBLIC "-//W3C//DTD SVG 1.1//EN" "http://www.w3.org/Graphics/SVG/1.1/DTD/svg11.dtd" >
<svg xmlns="http://www.w3.org/2000/svg" xmlns:xlink="http://www.w3.org/1999/xlink" version="1.1">
<metadata></metadata>
<defs>
<font id="agenda_lightregular" horiz-adv-x="1230" >
<font-face units-per-em="2048" ascent="1638" descent="-410" />
<missing-glyph horiz-adv-x="487" />
<glyph horiz-adv-x="0" />
<glyph horiz-adv-x="682" />
<glyph unicode=" "  horiz-adv-x="487" />
<glyph unicode="&#x09;" horiz-adv-x="487" />
<glyph unicode="&#xa0;" horiz-adv-x="487" />
<glyph unicode="!" horiz-adv-x="483" d="M147 92q0 28 36 70.5t61 42.5q27 0 61.5 -42t34.5 -71t-34.5 -70.5t-61.5 -41.5q-25 0 -61 42t-36 70zM166 1397h151l-20 -1078l-109 29z" />
<glyph unicode="&#x22;" horiz-adv-x="567" d="M74 1458h129l-31 -420h-74zM365 1458h127l-27 -420h-74z" />
<glyph unicode="#" horiz-adv-x="843" d="M35 432v86h141l62 270h-142v86h162l100 433h99l-101 -433h222l98 433h98l-98 -433h119v-86h-142l-61 -270h141v-86h-162l-100 -432h-98l100 432h-219l-100 -432h-99l101 432h-121zM274 518h220l61 270h-219z" />
<glyph unicode="$" horiz-adv-x="921" d="M80 82l33 119q140 -109 307 -109q126 0 204 69t78 169q0 195 -264 288q-168 61 -259 156.5t-91 218.5q0 127 80.5 221t230.5 113v182h86v-180q153 -5 267 -76l-29 -112q-120 76 -260 76q-118 0 -183 -64t-65 -147q0 -163 248 -254q368 -139 368 -412q0 -144 -92 -243.5 t-254 -114.5v-181h-86v176q-180 5 -319 105z" />
<glyph unicode="%" horiz-adv-x="1433" d="M82 1053q0 122 77.5 199t196.5 77q120 0 198.5 -77t78.5 -199t-78.5 -199.5t-198.5 -77.5q-119 0 -196.5 77.5t-77.5 199.5zM145 18l1076 1328l65 -56l-1073 -1329zM190 1053q0 -80 47.5 -128t118.5 -48q70 0 118 48.5t48 127.5t-48 126.5t-118 47.5q-71 0 -118.5 -47 t-47.5 -127zM803 256q0 120 78.5 198t195.5 78q119 0 198 -78t79 -198q0 -123 -78.5 -201t-198.5 -78q-118 0 -196 78t-78 201zM911 256q0 -80 48 -129t118 -49q71 0 119.5 49t48.5 129q0 77 -48.5 124.5t-119.5 47.5q-70 0 -118 -47.5t-48 -124.5z" />
<glyph unicode="&#x26;" horiz-adv-x="1204" d="M84 319q0 124 65 214t201 165q-180 177 -180 324q0 136 96.5 221.5t220.5 85.5q61 0 120 -21.5t106.5 -60t76.5 -97.5t29 -128q0 -192 -272 -348l348 -348q98 134 147 301l88 -88q-50 -168 -149 -299l242 -240h-176l-148 147q-177 -170 -420 -170q-172 0 -283.5 102 t-111.5 240zM215 326q0 -95 79 -164.5t191 -69.5q181 0 328 141l-379 381q-114 -65 -166.5 -131.5t-52.5 -156.5zM295 1022q0 -56 39.5 -116.5t128.5 -147.5q231 131 231 264q0 79 -61 138t-146 59q-78 0 -135 -59.5t-57 -137.5z" />
<glyph unicode="'" horiz-adv-x="276" d="M74 1458h129l-31 -420h-74z" />
<glyph unicode="(" horiz-adv-x="499" d="M84 489q0 530 231 963l131 -29q-109 -199 -172 -439.5t-63 -491.5q0 -262 55.5 -489t169.5 -462l-137 33q-106 210 -160.5 422t-54.5 493z" />
<glyph unicode=")" horiz-adv-x="499" d="M53 -430q108 202 172 443t64 489q0 262 -56.5 487.5t-171.5 464.5l140 -35q106 -210 160.5 -422t54.5 -493q0 -531 -234 -963z" />
<glyph unicode="*" horiz-adv-x="835" d="M51 1069l15 119l301 -109l-11 297l121 29l-14 -326l280 107l64 -109l-313 -84l188 -239l-82 -92l-184 272l-164 -252l-111 51l199 258z" />
<glyph unicode="+" horiz-adv-x="946" d="M90 512v111h322v305h123v-305h321v-111h-321v-305h-123v305h-322z" />
<glyph unicode="," horiz-adv-x="382" d="M57 -227q45 56 76 119t37 108q-23 6 -49.5 36.5t-26.5 55.5q0 29 35.5 71t60.5 42t61 -41.5t36 -71.5q0 -59 -52.5 -159t-119.5 -169z" />
<glyph unicode="-" horiz-adv-x="692" d="M90 512v111h512v-111h-512z" />
<glyph unicode="." horiz-adv-x="382" d="M92 92q0 28 35 70.5t61 42.5t61.5 -42.5t35.5 -70.5t-35.5 -70t-61.5 -42t-61 42t-35 70z" />
<glyph unicode="/" horiz-adv-x="1271" d="M57 41l1071 1321l86 -70l-1069 -1323z" />
<glyph unicode="0" horiz-adv-x="1110" d="M86 655q0 163 38 293.5t103 212.5t149 125t179 43q92 0 175.5 -43.5t149.5 -125.5t105 -212.5t39 -292.5q0 -165 -38.5 -297t-104.5 -213.5t-149.5 -124.5t-176.5 -43q-95 0 -179 42.5t-149 124t-103 213.5t-38 298zM217 655q0 -141 27 -251t74 -176.5t107 -100 t130 -33.5q69 0 129 33.5t107.5 99.5t74.5 176t27 252q0 140 -28 249t-75.5 175t-107 99.5t-127.5 33.5q-69 0 -129 -33.5t-107.5 -99.5t-74.5 -175t-27 -249z" />
<glyph unicode="1" horiz-adv-x="598" d="M20 1182l29 112l365 33v-1327h-129v1208z" />
<glyph unicode="2" horiz-adv-x="937" d="M59 0v31q613 613 613 911q0 134 -76.5 203t-200.5 69q-138 0 -266 -88l-31 117q143 86 297 86q186 0 297 -102t111 -289q0 -88 -45.5 -198.5t-122 -220.5t-163.5 -211.5t-183 -194.5h579v-113h-809z" />
<glyph unicode="3" horiz-adv-x="856" d="M51 168q118 -74 254 -74q145 0 239.5 82t94.5 230q0 110 -87.5 194t-201.5 84q-41 0 -59 -2l-31 109q121 22 199 86.5t78 144.5q0 84 -58 139.5t-157 55.5q-115 0 -216 -64l-26 111q108 65 246 65q150 0 245 -83.5t95 -211.5q0 -92 -58 -167t-139 -99 q122 -22 211.5 -124.5t89.5 -254.5q0 -186 -120.5 -297.5t-338.5 -111.5q-128 0 -221 49z" />
<glyph unicode="4" horiz-adv-x="980" d="M23 471l632 836h88v-834h164v-106h-164v-367h-129v367h-567zM160 473h454v401q0 133 2 205l-4 2q-43 -67 -147 -207z" />
<glyph unicode="5" horiz-adv-x="911" d="M102 172q127 -78 277 -78q134 0 224.5 82.5t90.5 214.5t-91 217.5t-220 85.5q-137 0 -233 -41l20 654h549l-27 -113h-399l-10 -399q44 14 110 14q184 0 308 -115.5t124 -302.5q0 -85 -29.5 -159.5t-84.5 -130.5t-139 -88.5t-187 -32.5q-70 0 -137.5 16t-108.5 39z" />
<glyph unicode="6" horiz-adv-x="1009" d="M86 434q0 172 77.5 347t213.5 320t307 236l131 -57q-193 -96 -338 -251.5t-213 -336.5q33 46 100 79.5t152 33.5q182 0 297 -117t115 -297q0 -179 -117 -295t-299 -116q-87 0 -164 30.5t-135.5 87t-92.5 143.5t-34 193zM219 410q0 -135 86.5 -225.5t208.5 -90.5 q121 0 202 83.5t81 211.5q0 132 -81 216.5t-208 84.5q-106 0 -182.5 -55t-104.5 -162q-2 -14 -2 -63z" />
<glyph unicode="7" horiz-adv-x="903" d="M45 1194v113h836l-559 -1307h-140l514 1194h-651z" />
<glyph unicode="8" horiz-adv-x="1019" d="M86 354q0 70 26.5 133t69.5 107t90 74.5t95 46.5q-92 35 -158 115t-66 182q0 138 106.5 227.5t260.5 89.5q155 0 259.5 -88.5t104.5 -228.5q0 -102 -65 -180t-158 -115q49 -15 97 -46t91 -75.5t69 -108t26 -133.5q0 -171 -123 -274t-301 -103q-87 0 -164 26t-135 73.5 t-91.5 119.5t-33.5 158zM209 358q0 -115 88 -190.5t209 -75.5q122 0 209.5 75t87.5 191q0 106 -87 183t-216 110q-126 -35 -208.5 -111t-82.5 -182zM272 1010q0 -81 65.5 -144t178.5 -94q111 34 172.5 95.5t61.5 142.5q0 91 -69.5 150t-170.5 59q-99 0 -168.5 -59 t-69.5 -150z" />
<glyph unicode="9" horiz-adv-x="1009" d="M82 920q0 177 117.5 293t298.5 116t303.5 -121.5t122.5 -330.5q0 -261 -168.5 -513.5t-427.5 -392.5l-131 58q192 98 337 252.5t214 334.5q-32 -45 -100.5 -77.5t-153.5 -32.5q-181 0 -296.5 116.5t-115.5 297.5zM213 920q0 -132 81.5 -217t207.5 -85q106 0 182.5 55.5 t103.5 162.5q5 35 5 63q0 134 -87.5 224.5t-209.5 90.5q-121 0 -202 -83t-81 -211z" />
<glyph unicode=":" horiz-adv-x="382" d="M92 92q0 28 35 70.5t61 42.5t61.5 -42.5t35.5 -70.5t-35.5 -70t-61.5 -42t-61 42t-35 70zM92 836q0 28 35 70t61 42t61.5 -42t35.5 -70t-35.5 -70.5t-61.5 -42.5t-61 42.5t-35 70.5z" />
<glyph unicode=";" horiz-adv-x="382" d="M57 -227q45 56 76 119t37 108q-23 6 -49.5 36.5t-26.5 55.5q0 29 35.5 71t60.5 42t61 -41.5t36 -71.5q0 -59 -52.5 -159t-119.5 -169zM92 836q0 28 35 70t61 42t61.5 -42t35.5 -70t-35.5 -70.5t-61.5 -42.5t-61 42.5t-35 70.5z" />
<glyph unicode="&#x3c;" horiz-adv-x="718" d="M100 567l363 363l86 -84l-279 -279l279 -278l-86 -84z" />
<glyph unicode="=" horiz-adv-x="946" d="M90 336v110h766v-110h-766zM90 688v111h766v-111h-766z" />
<glyph unicode="&#x3e;" horiz-adv-x="718" d="M172 289l277 278l-277 279l84 84l362 -363l-362 -362z" />
<glyph unicode="?" horiz-adv-x="784" d="M55 1317q104 100 275 100q164 0 268 -94t104 -254q0 -96 -47.5 -174.5t-144.5 -181.5q-115 -121 -115 -264q0 -84 11 -132l-111 27q-14 61 -14 119q0 196 133 332q76 78 114.5 142t38.5 144q0 90 -65.5 156t-169.5 66q-140 0 -248 -105zM260 92q0 28 35 70.5t61 42.5 q27 0 62 -42t35 -71t-35 -70.5t-62 -41.5q-26 0 -61 42t-35 70z" />
<glyph unicode="@" horiz-adv-x="1572" d="M86 539q0 163 65.5 310.5t175.5 252.5t261 167t317 62q132 0 242.5 -43t184 -116.5t114.5 -172.5t41 -211q0 -66 -17 -136.5t-50.5 -137.5t-79.5 -120t-109 -85.5t-133 -32.5q-63 0 -99.5 41.5t-35.5 116.5q-37 -73 -110.5 -115.5t-168.5 -42.5q-96 0 -164.5 72 t-68.5 193q0 104 42 196t109 152.5t150 95.5t166 35q137 0 221 -76l-74 -426q-6 -34 -6 -55q0 -82 53 -82q39 0 85.5 32.5t87.5 85.5t68 131t27 161q0 189 -132.5 315.5t-350.5 126.5q-187 0 -348 -91.5t-256.5 -252t-95.5 -350.5q0 -146 61.5 -251.5t162.5 -156.5t228 -51 q139 0 230 65l-33 -118q-71 -47 -213 -47q-240 0 -393.5 154t-153.5 405zM567 543q0 -75 41 -120.5t105 -45.5q92 0 165.5 87.5t104.5 252.5l31 172q-15 11 -44.5 20t-60.5 9q-131 0 -236.5 -109t-105.5 -266z" />
<glyph unicode="A" d="M53 0l541 1333h43l541 -1333h-140l-149 367h-553l-148 -367h-135zM383 479h459l-156 402q-39 93 -70 200h-4q-28 -100 -71 -200z" />
<glyph unicode="B" horiz-adv-x="1034" d="M141 0v1307h322q143 0 246.5 -89t103.5 -235q0 -80 -39 -148.5t-104 -95.5q113 -24 195.5 -124t82.5 -226q0 -118 -59.5 -208.5t-151.5 -135.5t-200 -45h-396zM279 119h231q124 0 211.5 73t87.5 197q0 123 -89 196.5t-218 73.5h-223v-540zM279 778h170q96 0 160.5 55 t64.5 150q0 96 -65.5 150.5t-166.5 54.5h-163v-410z" />
<glyph unicode="C" horiz-adv-x="1224" d="M86 653q0 124 38.5 233t105.5 189t155 138t188.5 87t204.5 29q233 0 385 -88l-26 -121q-61 39 -153 64.5t-191 25.5q-88 0 -172 -24.5t-155.5 -72.5t-125.5 -114t-84.5 -155.5t-30.5 -190.5q0 -125 46.5 -231t125.5 -176t181.5 -109t214.5 -39q226 0 368 88l-33 -139 q-128 -70 -350 -70q-132 0 -256 47.5t-221 132.5t-156 214.5t-59 281.5z" />
<glyph unicode="D" horiz-adv-x="1296" d="M141 0v1307h342q149 0 280 -44.5t230.5 -126t157 -206.5t57.5 -277q0 -122 -37.5 -227.5t-104 -182.5t-157.5 -132.5t-199 -83t-227 -27.5h-342zM279 119h184q174 0 309 60t215 182.5t80 291.5t-80 292t-215 183t-309 60h-184v-1069z" />
<glyph unicode="E" horiz-adv-x="940" d="M141 0v1307h682v-119h-544v-471h446v-119h-446v-479h616v-119h-754z" />
<glyph unicode="F" horiz-adv-x="868" d="M141 0v1307h695v-119h-557v-471h475v-119h-475v-598h-138z" />
<glyph unicode="G" horiz-adv-x="1382" d="M86 653q0 154 59 283.5t156 214t221 131.5t256 47q251 0 412 -100l-29 -121q-161 102 -368 102q-150 0 -278.5 -66t-209 -195.5t-80.5 -297.5q0 -125 46.5 -230.5t125 -175.5t181.5 -108.5t217 -38.5q103 0 192.5 25t142.5 63v324h-344v113h478v-504q-185 -142 -478 -142 q-137 0 -263.5 47.5t-223.5 133t-155 214.5t-58 281z" />
<glyph unicode="H" horiz-adv-x="1306" d="M141 0v1307h138v-590h749v590h137v-1307h-137v598h-749v-598h-138z" />
<glyph unicode="I" horiz-adv-x="489" d="M176 0v1307h137v-1307h-137z" />
<glyph unicode="J" horiz-adv-x="516" d="M-123 -162q326 67 326 441v1028h137v-1043q0 -113 -30.5 -206.5t-84 -155.5t-118.5 -101t-140 -55z" />
<glyph unicode="K" horiz-adv-x="1060" d="M141 0v1307h138v-629l569 629h162l-588 -648l612 -659h-170l-585 627v-627h-138z" />
<glyph unicode="L" horiz-adv-x="909" d="M141 0v1307h138v-1188h608v-119h-746z" />
<glyph unicode="M" horiz-adv-x="1679" d="M121 0l104 1307h88l361 -734q117 -240 170 -366h4q47 114 168 366l358 734h88l109 -1307h-133l-56 678q-16 223 -20 340h-4q-33 -80 -162 -348l-332 -684h-45l-334 684q-98 205 -161 346h-5q-5 -147 -20 -338l-53 -678h-125z" />
<glyph unicode="N" horiz-adv-x="1419" d="M141 0v1307h97l606 -695q162 -184 297 -350l4 2q-4 117 -4 346v697h137v-1336h-37l-643 738q-154 177 -319 376l-5 -2q5 -151 5 -362v-721h-138z" />
<glyph unicode="O" horiz-adv-x="1540" d="M86 655q0 147 56.5 274.5t150.5 214t218.5 136t258.5 49.5t258.5 -49.5t218.5 -136t150.5 -214t56.5 -274.5q0 -149 -56.5 -277.5t-150.5 -215t-218 -136t-259 -49.5t-259 49.5t-218 136t-150.5 215t-56.5 277.5zM225 655q0 -123 45 -228.5t120 -176.5t174 -111.5 t206 -40.5q143 0 267 68t201 197t77 292t-77 291.5t-201 196t-267 67.5q-107 0 -206 -40t-174 -111t-120 -176t-45 -228z" />
<glyph unicode="P" horiz-adv-x="925" d="M141 0v1307h365q101 0 187.5 -41.5t141 -123.5t54.5 -190q0 -107 -54.5 -189.5t-139 -123.5t-181.5 -41h-235v-598h-138zM279 717h213q108 0 183 63.5t75 171.5q0 107 -77 171.5t-190 64.5h-204v-471z" />
<glyph unicode="Q" horiz-adv-x="1540" d="M86 655q0 147 56.5 274.5t150.5 214t218.5 136t258.5 49.5t258.5 -49.5t218.5 -136t150.5 -214t56.5 -274.5q0 -250 -153.5 -431.5t-380.5 -217.5v-4q36 -7 133 -53q183 -92 317 -92q96 0 164 32l-92 -129q-40 -14 -96 -14q-103 0 -187 25.5t-201 87.5q-143 74 -253 123 q-126 12 -238.5 65.5t-197 139t-134 207.5t-49.5 261zM225 655q0 -123 45 -228.5t120 -176.5t174 -111.5t206 -40.5q143 0 267 68t201 197t77 292t-77 291.5t-201 196t-267 67.5q-107 0 -206 -40t-174 -111t-120 -176t-45 -228z" />
<glyph unicode="R" horiz-adv-x="1079" d="M141 0v1307h373q101 0 187.5 -41.5t141 -123.5t54.5 -190q0 -124 -71.5 -213t-184.5 -121l459 -618h-160l-436 598h-225v-598h-138zM279 717h221q108 0 183 63.5t75 171.5q0 107 -76.5 171.5t-189.5 64.5h-213v-471z" />
<glyph unicode="S" horiz-adv-x="946" d="M53 240q187 -142 391 -142q122 0 200.5 66.5t78.5 173.5q0 101 -63.5 168t-200.5 115q-344 121 -344 378q0 62 24 120t70 105.5t122 76t171 28.5q83 0 157 -22.5t119 -53.5l-28 -114q-42 30 -111.5 52.5t-140.5 22.5q-116 0 -183 -62t-67 -144q0 -157 239 -248 q92 -35 157.5 -72t116.5 -86t76 -111.5t25 -140.5q0 -169 -115 -271t-309 -102q-106 0 -195.5 29t-150.5 72z" />
<glyph unicode="T" horiz-adv-x="1064" d="M14 1188v119h1037v-119h-451v-1188h-137v1188h-449z" />
<glyph unicode="U" horiz-adv-x="1302" d="M141 453v854h138v-842q0 -171 98 -268t276 -97q176 0 275.5 97t99.5 268v842h133v-854q0 -220 -140 -348t-370 -128t-370 128t-140 348z" />
<glyph unicode="V" horiz-adv-x="1148" d="M33 1307h145l275 -701q75 -193 127 -350h4q52 161 125 350l276 701h131l-522 -1327h-39z" />
<glyph unicode="W" horiz-adv-x="1886" d="M55 1307h140l237 -686q78 -225 109 -342h4q40 141 108 342l236 686h121l235 -686q60 -171 107 -342h4q56 188 110 342l236 686h129l-461 -1327h-41l-262 761q-66 192 -123 381h-4q-57 -189 -123 -381l-260 -761h-43z" />
<glyph unicode="X" horiz-adv-x="1128" d="M59 0l422 666l-401 641h158l223 -357q73 -118 104 -178h4q40 74 105 178l227 357h148l-402 -633l422 -674h-158l-235 377q-56 86 -113 188h-4q-23 -44 -113 -188l-239 -377h-148z" />
<glyph unicode="Y" horiz-adv-x="1183" d="M25 1307h151l283 -400q97 -139 135 -198h4q66 101 135 198l285 400h141l-502 -703v-604h-135v604z" />
<glyph unicode="Z" horiz-adv-x="1011" d="M53 0v31l451 770q185 315 231 387l-2 2h-627v117h824v-31l-455 -774q-178 -301 -229 -383l2 -2h702v-117h-897z" />
<glyph unicode="[" horiz-adv-x="604" d="M133 -446v1880h404v-111h-275v-1659h275v-110h-404z" />
<glyph unicode="\" horiz-adv-x="1271" d="M57 1292l86 70l1071 -1321l-90 -72z" />
<glyph unicode="]" horiz-adv-x="604" d="M74 -336h276v1659h-276v111h403v-1880h-403v110z" />
<glyph unicode="^" horiz-adv-x="774" d="M74 1106q179 79 313 268q134 -189 313 -268l-84 -82q-135 62 -229 164q-94 -102 -229 -164z" />
<glyph unicode="_" horiz-adv-x="1024" d="M-2 -360h1030v-113h-1030v113z" />
<glyph unicode="`" horiz-adv-x="737" d="M154 1221l26 120q71 -73 174 -127.5t213 -85.5l-73 -71q-213 54 -340 164z" />
<glyph unicode="a" horiz-adv-x="913" d="M76 252q0 128 86 202t211 85l248 24v88q0 85 -58.5 135t-161.5 50q-65 0 -132 -19.5t-113 -50.5l-27 108q109 74 279 74q153 0 248.5 -81.5t95.5 -227.5v-424q0 -65 33 -104.5t81 -47.5l-84 -83q-49 9 -89.5 49t-49.5 92q-37 -64 -110.5 -102.5t-159.5 -38.5 q-129 0 -213 78.5t-84 193.5zM201 252q0 -69 51 -115.5t125 -46.5q90 0 167 68.5t77 171.5v125l-228 -21q-89 -7 -140.5 -56.5t-51.5 -125.5z" />
<glyph unicode="b" horiz-adv-x="1046" d="M135 66v1392h129v-563q75 53 211 53q134 0 247 -60t181 -171t68 -250q0 -218 -143 -352.5t-369 -134.5q-187 0 -324 86zM264 137q88 -43 195 -43q172 0 276.5 103.5t104.5 269.5q0 160 -108 263.5t-257 103.5q-130 0 -211 -64v-633z" />
<glyph unicode="c" horiz-adv-x="935" d="M76 463q0 108 40 200t108 153.5t158.5 96.5t190.5 35q166 0 291 -71l-26 -115q-110 72 -258 72q-159 0 -266 -104.5t-107 -266.5q0 -161 108.5 -265t268.5 -104q142 0 272 68l-33 -131q-92 -51 -250 -51q-99 0 -189 34.5t-158.5 96t-109 153t-40.5 199.5z" />
<glyph unicode="d" horiz-adv-x="1083" d="M76 463q0 211 139.5 348t347.5 137q75 0 143.5 -21.5t110.5 -54.5v586h131v-1458h-114l-5 78q-94 -98 -286 -98q-87 0 -170.5 33.5t-149.5 93.5t-106.5 153t-40.5 203zM207 463q0 -161 102 -265t254 -104q78 0 144 27t110 74v540q-42 43 -110.5 71t-143.5 28 q-152 0 -254 -105t-102 -266z" />
<glyph unicode="e" horiz-adv-x="989" d="M76 463q0 108 39 201t102.5 154t143.5 95.5t163 34.5q92 0 167.5 -30t123 -79.5t73 -110.5t25.5 -126q0 -45 -4 -63l-78 -76h-620q-1 -11 -1 -22q0 -131 98 -235q106 -112 271.5 -112t290.5 92l-36 -143q-111 -63 -269 -63q-133 0 -244.5 60.5t-178 172t-66.5 250.5z M221 569h561q2 8 2 27q0 91 -68.5 165.5t-185.5 74.5q-111 0 -200.5 -81t-108.5 -186z" />
<glyph unicode="f" horiz-adv-x="653" d="M35 821v107h147v104q0 212 100 323t283 111q86 0 154 -30l-27 -111q-64 31 -147 31q-107 0 -169.5 -81t-62.5 -208v-139h293l-24 -107h-269v-821h-131v821h-147z" />
<glyph unicode="g" horiz-adv-x="933" d="M51 -154q0 108 64.5 184.5t154.5 98.5l-110 100q0 45 40.5 89.5t88.5 58.5q-73 36 -121.5 106t-48.5 158q0 134 95.5 220.5t244.5 86.5q54 0 116 -16q46 -14 115 -14q79 0 141 32l27 -106q-17 -11 -57.5 -20t-69.5 -9q68 -68 68 -174q0 -129 -94 -219t-246 -90 q-74 0 -117 -20.5t-43 -51.5q0 -8 27.5 -32t56.5 -33l240 -82q123 -41 185 -110t62 -181q0 -127 -113.5 -211t-293.5 -84q-183 0 -297.5 90.5t-114.5 228.5zM168 -154q0 -87 80 -150t213 -63q130 0 208.5 57.5t78.5 131.5q0 128 -164 180l-187 57q-100 -1 -164.5 -61.5 t-64.5 -151.5zM240 641q0 -85 63 -143t158 -58q89 0 153 58.5t64 142.5q0 82 -62.5 140.5t-154.5 58.5q-94 0 -157.5 -58t-63.5 -141z" />
<glyph unicode="h" horiz-adv-x="1036" d="M135 0v1458h129v-1v-1v-1v-1v-1v-1v-1v-1v-1v-1v-1v-1v-1v-1v-1v-1v-1v-1v-1v-1v-1v-1v-1v-1v-1v-1v-1v-1v-1v-1v-1v-1v-1v-1v-1v-1v-1v-1v-1v-1v-1v-1v-1v-1v-1v-1v-1v-1v-1v-1v-1v-1v-1v-1v-1v-1v-1v-1v-1v-1v-1v-1v-1v-1v-1v-1v-1v-1v-1v-1v-1v-1v-1v-1v-1v-1v-1v-1 v-1v-1v-1v-1v-1v-1v-1v-1v-1v-1v-1v-1v-1v-1v-1v-1v-1v-1v-1v-1v-1v-1v-1v-1v-1v-1v-1v-1v-1v-1v-1v-1v-1v-1v-1v-1v-1v-1v-1v-1v-1v-1v-1v-2v-1v-1v-1v-1v-1v-1v-1v-1v-1v-2v-1v-1v-1v-1v-1v-1v-1v-2v-1v-1v-1v-1v-1v-2v-1v-1v-1v-1v-1v-2v-1v-1v-1v-1v-2v-1v-1v-1v-1v-2 v-1v-1v-1v-1v-2v-1v-1v-1v-2v-1v-1v-1v-2v-1v-1v-1v-2v-1v-1v-1v-2v-1v-1v-1v-2v-1v-1v-2v-1v-1v-2v-1v-1v-1v-2v-1v-1v-2v-1v-1v-2v-1v-1v-2v-1v-1v-2v-1v-1v-2v-1v-2v-1v-1v-2v-1v-1v-2v-1v-1v-2v-1v-2v-1v-1v-2v-1v-2v-1v-1v-2v-1v-2v-1v-1v-2v-1v-2v-1v-2v-1v-1v-2v-1 v-2v-1v-2v-1v-2v-1v-2v-1v-1v-2v-1v-2v-1v-2v-1v-2v-1v-2v-1v-2v-1v-2v-1v-2v-1v-2v-1v-2v-1v-2v-1v-2v-1v-2v-1v-2v-1v-2v-1v-2v-2v-1v-2v-1v-2v-1v-2v-1v-2v-1v-2v-2v-1v-2v-1v-2v-1v-2v-2v-1v-2v-1v-2v-2v-1v-2v-1v-2v-2v-1v-2v-1v-2v-2v-1v-2v-1v-2v-2v-1v-2v-2v-1v-2 v-2v-1v-2v-1v-2v-2v-1v-2v-2v-1v-2v-2v-1v-2v-2v-1v-2v-2v-1v-2v-2v-1v-2v-2v-2v-1v-2v-2v-1v-2v-2v-1v-2v-2v-2v-1v-2v-2v-1v-2v-2v-2v-1v-2v-2v-2v-1v-2v-2v-2v-1v-2v-2v-2v-1v-2v-2v-2v-1v-2v-2v-2v-2v-1v-2v-2v-2v-1v-2v-2v-2v-2v-1v-2v-2v-2v-2v-2v-1v-2v-2v-2v-2v-1 v-2v-2v-2v-2v-2v-1v-2v-2v-2v-2v-2v-2v-1v-2v-2v-2v-2v-2v-2v-2v-1v-2v-2v-2v-2v-2v-2v-2v-2v-2v-1v-2v-2v-2v-2v-2v-2v-2v-8q89 125 295 125q156 0 255 -87t99 -236v-625h-129v612q0 100 -67.5 162t-188.5 62q-119 0 -191.5 -63t-72.5 -161v-612h-129z" />
<glyph unicode="i" horiz-adv-x="471" d="M150 1206q0 26 31.5 63.5t54.5 37.5t55.5 -37.5t32.5 -63.5q0 -25 -32.5 -61.5t-55.5 -36.5t-54.5 36.5t-31.5 61.5zM170 0v928h131v-928h-131z" />
<glyph unicode="j" horiz-adv-x="471" d="M-33 -389q203 49 203 293v1024h131v-1034q0 -140 -72 -239.5t-178 -125.5zM150 1206q0 26 31.5 63.5t54.5 37.5t54.5 -37.5t31.5 -63.5q0 -25 -31.5 -61.5t-54.5 -36.5t-54.5 36.5t-31.5 61.5z" />
<glyph unicode="k" horiz-adv-x="882" d="M135 0v1458h129v-973l430 443h156l-438 -455l460 -473h-167l-441 451v-451h-129z" />
<glyph unicode="l" horiz-adv-x="518" d="M170 203v1255h129v-1241q0 -63 34.5 -106t84.5 -54l-88 -88q-30 10 -56 26t-50.5 43t-39 69.5t-14.5 95.5z" />
<glyph unicode="m" horiz-adv-x="1564" d="M121 0v928h117l4 -103q89 123 284 123q91 0 165 -40t110 -105q36 64 118 104.5t203 40.5q140 0 231 -79t91 -207v-662h-129v651q0 87 -61 136t-169 49q-106 0 -171.5 -50.5t-65.5 -134.5v-651h-129v651q0 87 -62 136t-170 49q-106 0 -171.5 -50.5t-65.5 -134.5v-651h-129 z" />
<glyph unicode="n" horiz-adv-x="1019" d="M121 0v928h117l4 -113q91 133 303 133q156 0 255 -87t99 -236v-625h-129v612q0 100 -67.5 162t-188.5 62q-119 0 -191.5 -63t-72.5 -161v-612h-129z" />
<glyph unicode="o" horiz-adv-x="1128" d="M76 463q0 139 64.5 250.5t176 173t248.5 61.5t248.5 -61.5t175.5 -173t64 -250.5t-64 -250t-175.5 -172t-248.5 -61q-209 0 -349 136.5t-140 346.5zM207 463q0 -161 103 -265t255 -104q150 0 253.5 104.5t103.5 264.5q0 161 -103.5 266t-253.5 105q-152 0 -255 -105 t-103 -266z" />
<glyph unicode="p" horiz-adv-x="1083" d="M135 -473v1401h115l2 -78q98 98 289 98q69 0 136.5 -21t127 -62.5t105 -98.5t72 -135t26.5 -166q0 -139 -64 -250.5t-175.5 -173t-248.5 -61.5q-75 0 -143.5 21.5t-112.5 53.5v-528h-129zM264 193q43 -43 112 -71t144 -28q152 0 254.5 105t102.5 266t-102.5 265 t-254.5 104q-158 0 -256 -101v-540z" />
<glyph unicode="q" horiz-adv-x="1046" d="M76 469q0 107 39 198t105.5 152t155.5 95t189 34q65 0 134.5 -16.5t119.5 -42.5l53 51h39v-1413h-129v506q-82 -53 -209 -53q-135 0 -248 60t-181 172.5t-68 256.5zM207 469q0 -166 107 -270.5t259 -104.5q119 0 209 64v618q-86 58 -217 58q-151 0 -254.5 -103 t-103.5 -262z" />
<glyph unicode="r" horiz-adv-x="651" d="M141 0v928h123l6 -178q30 86 115.5 138t206.5 52l26 -111h-20q-140 0 -234 -97t-94 -277v-455h-129z" />
<glyph unicode="s" horiz-adv-x="761" d="M63 205q58 -54 136 -84.5t161 -30.5q80 0 133.5 40t53.5 106q0 117 -172 178q-136 48 -203.5 116t-67.5 172q0 108 81 177t206 69q69 0 133 -18.5t94 -40.5l-24 -107q-86 58 -205 58q-70 0 -114 -36.5t-44 -96.5q0 -59 40.5 -96.5t121.5 -67.5q141 -50 212 -120.5 t71 -180.5q0 -117 -86 -189.5t-232 -72.5q-164 0 -260 75z" />
<glyph unicode="t" horiz-adv-x="712" d="M27 821v107h192v200l129 68v-268h332l-27 -107h-305v-590q0 -65 38.5 -99t98.5 -34q64 0 107 19l-31 -121q-30 -10 -86 -10q-112 0 -184 65.5t-72 184.5v585h-192z" />
<glyph unicode="u" horiz-adv-x="1019" d="M121 303v625h129v-613q0 -100 67.5 -161.5t188.5 -61.5q119 0 191.5 62.5t72.5 160.5v613h129v-928h-117l-4 113q-91 -133 -303 -133q-156 0 -255 87t-99 236z" />
<glyph unicode="v" horiz-adv-x="940" d="M55 928h131l199 -475q61 -149 88 -236h4q33 98 90 236l195 475h123l-391 -946h-48z" />
<glyph unicode="w" horiz-adv-x="1456" d="M66 928h124l168 -463q49 -136 76 -232h4q29 105 76 230l168 465h98l168 -463q40 -106 76 -232h4q35 113 78 230l166 465h119l-347 -946h-40l-187 505q-46 125 -86 258h-4q-38 -121 -86 -253l-186 -510h-43z" />
<glyph unicode="x" horiz-adv-x="888" d="M70 0l301 473l-285 455h145l146 -234q38 -59 67 -116h5q29 53 69 116l146 234h141l-285 -451l299 -477h-145l-156 246q-43 65 -72 125h-4q-36 -65 -77 -125l-156 -246h-139z" />
<glyph unicode="y" horiz-adv-x="950" d="M-16 -395q134 42 235 154t191 323l-359 846h135l199 -467q59 -142 92 -234h4q47 126 92 230l201 471h125l-360 -848q-103 -243 -218 -374.5t-258 -182.5z" />
<glyph unicode="z" horiz-adv-x="831" d="M53 0v25l322 528q101 166 166 262l-2 2h-447v111h645v-25l-323 -528q-34 -59 -164 -262l2 -2h520v-111h-719z" />
<glyph unicode="{" horiz-adv-x="675" d="M31 492q186 118 186 436q0 109 20 198t63 159t116 108.5t172 38.5l28 -103q-145 0 -208.5 -105.5t-63.5 -301.5q0 -288 -160 -430q160 -139 160 -431q0 -196 63.5 -301.5t208.5 -105.5l-28 -103q-99 0 -172 38.5t-116 109t-63 159.5t-20 199q0 320 -186 435z" />
<glyph unicode="|" horiz-adv-x="440" d="M164 -473v1931h112v-1931h-112z" />
<glyph unicode="}" horiz-adv-x="675" d="M61 -346q144 0 207.5 105.5t63.5 301.5q0 293 162 431q-162 141 -162 430q0 196 -63.5 301.5t-207.5 105.5l27 103q100 0 173.5 -38.5t116 -108.5t63 -159t20.5 -198q0 -318 186 -436q-186 -115 -186 -435q0 -87 -12.5 -161.5t-40.5 -139t-70.5 -109.5t-106 -70.5 t-143.5 -25.5z" />
<glyph unicode="~" horiz-adv-x="798" d="M115 475l22 107q145 90 279 98l33 -115q103 8 237 90l-22 -104q-129 -92 -279 -98l-33 112q-111 -9 -237 -90z" />
<glyph unicode="&#xa1;" horiz-adv-x="483" d="M141 1217q0 29 35.5 70.5t61.5 41.5t61 -41t35 -71q0 -27 -35 -69t-61 -42t-61.5 42t-35.5 69zM164 -86l22 1077l109 -28l22 -1049h-153z" />
<glyph unicode="&#xa2;" horiz-adv-x="935" d="M76 834q0 202 129.5 335t322.5 148v192h86v-192q143 -6 250 -72l-26 -115q-109 74 -258 74q-159 0 -266 -104t-107 -266q0 -161 108.5 -265t268.5 -104q149 0 272 67l-33 -131q-79 -44 -209 -51v-182h-86v184q-93 7 -175.5 44t-143.5 98.5t-97 149.5t-36 190z" />
<glyph unicode="&#xa3;" horiz-adv-x="868" d="M41 608v86h147v187q0 221 104 332.5t292 111.5q82 0 153 -31l-26 -110q-62 30 -148 30q-113 0 -179.5 -82.5t-66.5 -218.5v-219h314l-13 -86h-301v-116q0 -257 -67 -377q91 24 229 24q184 0 318 -49l-19 -113q-136 52 -303 52q-168 0 -297 -45l-100 53q110 168 110 465 v106h-147z" />
<glyph unicode="&#xa4;" horiz-adv-x="1003" d="M100 899l62 64l135 -136q88 72 205 72q108 0 203 -68l133 134l61 -62l-133 -133q70 -93 70 -203q0 -113 -74 -207l137 -135l-63 -61l-136 135q-92 -63 -198 -63q-111 0 -201 67l-137 -137l-62 63l138 138q-68 87 -68 200q0 112 64 195q1 0 -33 34t-69 68zM254 567 q0 -103 72.5 -176.5t175.5 -73.5q104 0 178 73.5t74 176.5q0 102 -74 175t-178 73q-102 0 -175 -73t-73 -175z" />
<glyph unicode="&#xa5;" horiz-adv-x="1183" d="M25 1307h153l283 -400q52 -71 135 -198h4q55 85 135 198l285 400h139l-383 -537h185v-86h-246l-58 -80v-37h304v-86h-304v-481h-135v481h-311v86h311v35l-55 82h-256v86h192z" />
<glyph unicode="&#xa6;" horiz-adv-x="440" d="M164 371h112v-844h-112v844zM164 614v844h112v-844h-112z" />
<glyph unicode="&#xa7;" horiz-adv-x="927" d="M117 1006q0 59 23 115t66.5 103t114.5 75t160 28q172 0 289 -74l-29 -118q-105 75 -258 75q-116 0 -176.5 -61t-60.5 -143q0 -89 51 -140l520 -534l-72 -252q74 -80 74 -213q0 -59 -22.5 -115.5t-65.5 -103t-114 -75t-160 -28.5q-172 0 -289 74l27 119q115 -76 258 -76 q116 0 177.5 61.5t61.5 143.5q0 88 -51 139l-520 535l69 252q-73 79 -73 213zM215 596l461 -471l47 156l-465 469z" />
<glyph unicode="&#xa8;" horiz-adv-x="737" d="M141 1159q0 26 32 65.5t54 39.5q24 0 55 -39t31 -66q0 -26 -31 -64t-55 -38q-22 0 -54 38.5t-32 63.5zM424 1159q0 27 31 66t55 39t54 -39t30 -66q0 -26 -30 -64t-54 -38t-55 38t-31 64z" />
<glyph unicode="&#xa9;" d="M74 512q0 155 72 278.5t195 191t273 67.5q152 0 275.5 -67.5t195.5 -191t72 -278.5q0 -154 -72 -277.5t-196 -191.5t-275 -68q-149 0 -272.5 68t-195.5 191.5t-72 277.5zM160 512q0 -197 128.5 -328t325.5 -131t327 131t130 328q0 198 -129.5 328.5t-327.5 130.5 q-197 0 -325.5 -130t-128.5 -329zM348 510q0 126 90 208.5t213 82.5q111 0 185 -56l-19 -88q-70 45 -162 45q-83 0 -140.5 -53.5t-57.5 -138.5q0 -88 57.5 -145.5t140.5 -57.5q91 0 172 58l-26 -113q-62 -41 -150 -41q-123 0 -213 85t-90 214z" />
<glyph unicode="&#xaa;" horiz-adv-x="745" d="M76 778q0 97 69.5 158.5t165.5 69.5l199 20v66q0 64 -44.5 101.5t-123.5 37.5q-116 0 -199 -60l-26 97q87 61 229 61q125 0 203 -65.5t78 -182.5v-333q0 -99 98 -117l-78 -76q-40 8 -71.5 36t-43.5 68q-31 -47 -90 -75.5t-125 -28.5q-105 0 -173 64t-68 159zM186 772 q0 -55 39 -91t97 -36q71 0 129.5 53t58.5 138v98l-182 -19q-63 -8 -102.5 -46.5t-39.5 -96.5zM299 309q0 27 30.5 66t53.5 39q24 0 53 -39t29 -66q0 -26 -29 -64t-53 -38q-23 0 -53.5 38.5t-30.5 63.5z" />
<glyph unicode="&#xab;" horiz-adv-x="849" d="M10 567q100 67 185.5 158t140.5 188l74 -73q-35 -74 -93.5 -145t-126.5 -128q152 -127 220 -272l-74 -74q-56 98 -142 190.5t-184 155.5zM397 567q101 66 187 157.5t141 188.5l74 -73q-36 -75 -94 -146.5t-125 -126.5q148 -121 219 -272l-74 -74q-56 99 -142 191 t-186 155z" />
<glyph unicode="&#xac;" horiz-adv-x="1040" d="M90 512v111h819v-330h-116v219h-703z" />
<glyph unicode="&#xad;" horiz-adv-x="692" d="M90 512v111h512v-111h-512z" />
<glyph unicode="&#xae;" horiz-adv-x="925" d="M76 946q0 167 111 275t276 108t276 -108t111 -275t-111.5 -276t-275.5 -109t-275.5 109t-111.5 276zM145 946q0 -141 90 -230t228 -89q137 0 227 89t90 230q0 140 -90.5 230t-226.5 90q-137 0 -227.5 -90t-90.5 -230zM330 711v467h139q61 0 104 -38.5t43 -97.5 q0 -81 -73 -120l119 -170l-62 -43l-133 194h-64v-192h-73zM403 971h58q38 0 60 19.5t22 51.5q0 31 -22 50.5t-60 19.5h-58v-141z" />
<glyph unicode="&#xaf;" horiz-adv-x="737" d="M193 1079v113h352v-113h-352z" />
<glyph unicode="&#xb0;" horiz-adv-x="501" d="M55 1139q0 79 58.5 136.5t138.5 57.5t137 -57.5t57 -136.5t-57 -136t-137 -57t-138.5 57t-58.5 136zM133 1139q0 -51 33.5 -84t85.5 -33q51 0 84 33t33 84q0 52 -33 85t-84 33q-53 0 -86 -33t-33 -85z" />
<glyph unicode="&#xb1;" horiz-adv-x="1751" d="M35 821v107h147v69q0 210 109 323.5t289 113.5q118 0 196 -45l-26 -111q-72 45 -183 45q-113 0 -183.5 -83t-70.5 -218v-94h494v65q0 217 125 345t321 128q177 0 281 -82v-1163q0 -64 33.5 -106.5t85.5 -53.5l-90 -88q-65 18 -112.5 75t-47.5 159v1116q-58 33 -166 33 q-129 0 -214 -93t-85 -245v-90h229l-24 -107h-205v-821h-131v821h-494v-821h-131v821h-147z" />
<glyph unicode="&#xb2;" horiz-adv-x="729" d="M76 506v29q413 349 413 538q0 85 -51.5 129.5t-142.5 44.5q-107 0 -184 -49l-23 82q79 49 207 49q138 0 214.5 -69.5t76.5 -188.5q0 -100 -84 -226t-234 -257h357v-82h-549z" />
<glyph unicode="&#xb3;" horiz-adv-x="649" d="M76 635q84 -57 186 -57q85 0 144 50.5t59 135.5q0 67 -50 112.5t-118 45.5q-26 0 -47 -7l-21 82q72 13 120 55.5t48 86.5q0 50 -35 79t-96 29q-77 0 -147 -37l-23 82q75 37 170 37q103 0 165.5 -51.5t62.5 -138.5q0 -49 -27.5 -89.5t-75.5 -64.5q69 -18 119.5 -79 t50.5 -142q0 -117 -80.5 -192.5t-218.5 -75.5q-95 0 -160 41z" />
<glyph unicode="&#xb4;" horiz-adv-x="737" d="M154 1128q110 31 213 85.5t174 127.5l26 -120q-129 -111 -340 -164z" />
<glyph unicode="&#xb5;" horiz-adv-x="1126" d="M80 0v928h967v-928h-967zM133 51h387q-47 20 -74 50t-49 75l-264 572v-697zM184 795l494 -365q-86 -34 -136 -93t-50 -116q0 -111 106 -170h395v744h-809z" />
<glyph unicode="&#xb6;" horiz-adv-x="835" d="M96 977q0 108 54 187t138 116t185 37h291v-109h-137v-1314q0 -140 -72 -239.5t-178 -125.5l-84 82q203 49 203 293v737h-25q-100 0 -183.5 36.5t-137.5 114.5t-54 185z" />
<glyph unicode="&#xb7;" horiz-adv-x="382" d="M92 555q0 27 35 69t61 42t61.5 -42t35.5 -69q0 -30 -35.5 -71.5t-61.5 -41.5t-61 41.5t-35 71.5z" />
<glyph unicode="&#xb8;" horiz-adv-x="737" d="M195 -412l18 78q60 -45 137 -45q46 0 81.5 30.5t35.5 82.5q0 55 -37.5 84.5t-89.5 29.5q-36 0 -47 -4l39 160h63l-18 -72q71 -3 128.5 -56.5t57.5 -137.5q0 -93 -65.5 -146t-149.5 -53q-83 0 -153 49z" />
<glyph unicode="&#xb9;" horiz-adv-x="524" d="M84 1221l22 88l238 20v-821h-96v725z" />
<glyph unicode="&#xba;" horiz-adv-x="931" d="M72 942q0 168 112.5 277.5t282.5 109.5q168 0 280.5 -109.5t112.5 -277.5t-112.5 -277.5t-280.5 -109.5q-170 0 -282.5 109.5t-112.5 277.5zM186 942q0 -126 81.5 -208.5t199.5 -82.5q117 0 197.5 82.5t80.5 208.5t-80.5 208.5t-197.5 82.5q-118 0 -199.5 -82.5 t-81.5 -208.5zM383 309q0 27 30.5 66t53.5 39q24 0 54 -39t30 -66q0 -26 -30 -64t-54 -38q-23 0 -53.5 38.5t-30.5 63.5z" />
<glyph unicode="&#xbb;" horiz-adv-x="849" d="M51 295q71 151 219 272q-67 55 -125 126.5t-94 146.5l74 73q55 -97 141 -188.5t187 -157.5q-100 -63 -186 -155t-142 -191zM440 295q70 149 217 272q-144 120 -217 273l74 73q54 -96 140.5 -187.5t187.5 -158.5q-99 -63 -186 -155.5t-142 -190.5z" />
<glyph unicode="&#xbc;" horiz-adv-x="1474" d="M84 1221l22 88l238 20v-821h-96v725zM133 16l1067 1319l53 -47l-1065 -1317zM772 317l397 496h80v-494h111v-81h-111v-238h-96v238h-358zM881 319h272v240q0 58 6 119l-4 2q-50 -75 -88 -123z" />
<glyph unicode="&#xbd;" horiz-adv-x="1605" d="M84 1221l22 88l238 20v-821h-96v725zM133 18l1067 1317l53 -47l-1065 -1317zM954 0v27q414 352 414 540q0 84 -52.5 129t-144.5 45q-98 0 -184 -49l-22 80q86 51 206 51q139 0 215 -70t76 -190q0 -98 -83.5 -224t-231.5 -257h354v-82h-547z" />
<glyph unicode="&#xbe;" horiz-adv-x="1562" d="M76 635q84 -57 186 -57q85 0 144 50.5t59 135.5q0 67 -50 112.5t-118 45.5q-26 0 -47 -7l-21 82q72 13 120 55.5t48 86.5q0 50 -35 79t-96 29q-77 0 -147 -37l-23 82q75 37 170 37q103 0 165.5 -51.5t62.5 -138.5q0 -49 -27.5 -89.5t-75.5 -64.5q69 -18 119.5 -79 t50.5 -142q0 -117 -80.5 -192.5t-218.5 -75.5q-95 0 -160 41zM240 16l1069 1319l53 -47l-1065 -1317zM881 317l397 496h80v-494h110v-81h-110v-238h-96v238h-361zM989 319h273v240q0 58 6 119l-4 2q-49 -75 -88 -123z" />
<glyph unicode="&#xbf;" horiz-adv-x="784" d="M82 242q0 95 48 174.5t144 181.5q115 118 115 264q0 87 -10 131l110 -28q17 -70 17 -119q0 -194 -135 -332q-76 -76 -115 -141t-39 -146q0 -89 66 -154t170 -65q142 0 247 105l29 -121q-105 -101 -274 -101q-164 0 -268.5 95t-104.5 256zM332 1217q0 30 34.5 71t61.5 41 q26 0 61 -41t35 -71q0 -27 -35 -69t-61 -42q-27 0 -61.5 42t-34.5 69z" />
<glyph unicode="&#xc0;" d="M53 0l541 1333h43l541 -1333h-140l-149 367h-553l-148 -367h-135zM330 1630l26 121q71 -73 174 -127.5t213 -85.5l-73 -72q-213 54 -340 164zM383 479h459l-156 402q-39 93 -70 200h-4q-28 -100 -71 -200z" />
<glyph unicode="&#xc1;" d="M53 0l541 1333h43l541 -1333h-140l-149 367h-553l-148 -367h-135zM383 479h459l-156 402q-39 93 -70 200h-4q-28 -100 -71 -200zM479 1538q110 31 213 85.5t174 127.5l27 -121q-129 -111 -340 -164z" />
<glyph unicode="&#xc2;" d="M53 0l541 1333h43l541 -1333h-140l-149 367h-553l-148 -367h-135zM350 1536q150 68 266 227q112 -158 267 -227l-72 -70q-126 60 -195 142q-73 -84 -196 -142zM383 479h459l-156 402q-39 93 -70 200h-4q-28 -100 -71 -200z" />
<glyph unicode="&#xc3;" d="M53 0l541 1333h43l541 -1333h-140l-149 367h-553l-148 -367h-135zM324 1491l22 106q146 91 279 99l32 -115q105 8 238 90l-23 -104q-131 -93 -278 -99l-33 113q-111 -9 -237 -90zM383 479h459l-156 402q-39 93 -70 200h-4q-28 -100 -71 -200z" />
<glyph unicode="&#xc4;" d="M53 0l541 1333h43l541 -1333h-140l-149 367h-553l-148 -367h-135zM383 479h459l-156 402q-39 93 -70 200h-4q-28 -100 -71 -200zM391 1569q0 26 32 65t54 39q24 0 55 -38.5t31 -65.5q0 -26 -31 -64.5t-55 -38.5q-22 0 -54 39t-32 64zM674 1569q0 27 31 65.5t55 38.5 t54 -38.5t30 -65.5q0 -26 -30 -64.5t-54 -38.5t-55 38.5t-31 64.5z" />
<glyph unicode="&#xc5;" d="M53 0l541 1333h43l541 -1333h-140l-149 367h-553l-148 -367h-135zM383 479h459l-156 402q-39 93 -70 200h-4q-28 -100 -71 -200zM410 1653q0 85 60.5 145t145.5 60t146 -60t61 -145q0 -86 -61 -146.5t-146 -60.5t-145.5 60.5t-60.5 146.5zM494 1653q0 -53 35 -88t87 -35 t87.5 35t35.5 88q0 52 -35 86.5t-88 34.5t-87.5 -34.5t-34.5 -86.5z" />
<glyph unicode="&#xc6;" horiz-adv-x="1638" d="M41 0l758 1307h729v-119h-543v-471h445v-119h-445v-479h614v-119h-751v377h-449l-219 -377h-139zM459 489h389v463q0 150 2 232l-4 2q-60 -128 -123 -238z" />
<glyph unicode="&#xc7;" horiz-adv-x="1224" d="M86 653q0 124 38.5 233t105.5 189t155 138t188.5 87t204.5 29q233 0 385 -88l-26 -121q-61 39 -153 64.5t-191 25.5q-88 0 -172 -24.5t-155.5 -72.5t-125.5 -114t-84.5 -155.5t-30.5 -190.5q0 -125 46.5 -231t125.5 -176t181.5 -109t214.5 -39q226 0 368 88l-33 -139 q-123 -67 -346 -70l-12 -45q71 -3 128.5 -56.5t57.5 -137.5q0 -93 -65.5 -146t-149.5 -53q-83 0 -153 49l18 78q60 -45 137 -45q46 0 81.5 30.5t35.5 82.5q0 55 -37.5 84.5t-89.5 29.5q-36 0 -47 -4l33 136q-125 11 -239 63t-202 136.5t-140 207.5t-52 266z" />
<glyph unicode="&#xc8;" horiz-adv-x="940" d="M141 0v1307h682v-119h-544v-471h446v-119h-446v-479h616v-119h-754zM215 1630l27 121q71 -73 174 -127.5t213 -85.5l-74 -72q-213 54 -340 164z" />
<glyph unicode="&#xc9;" horiz-adv-x="940" d="M141 0v1307h682v-119h-544v-471h446v-119h-446v-479h616v-119h-754zM365 1538q110 31 213 85.5t174 127.5l26 -121q-129 -111 -340 -164z" />
<glyph unicode="&#xca;" horiz-adv-x="940" d="M141 0v1307h682v-119h-544v-471h446v-119h-446v-479h616v-119h-754zM236 1536q150 68 266 227q113 -159 266 -227l-72 -70q-124 59 -194 142q-72 -83 -197 -142z" />
<glyph unicode="&#xcb;" horiz-adv-x="940" d="M141 0v1307h682v-119h-544v-471h446v-119h-446v-479h616v-119h-754zM274 1569q0 26 32 65t54 39q24 0 55 -38.5t31 -65.5q0 -26 -31 -64.5t-55 -38.5q-22 0 -54 39t-32 64zM557 1569q0 27 31 65.5t55 38.5t54 -38.5t30 -65.5q0 -26 -30 -64.5t-54 -38.5t-55 38.5 t-31 64.5z" />
<glyph unicode="&#xcc;" horiz-adv-x="489" d="M0 1630l27 121q71 -73 174 -127.5t213 -85.5l-74 -72q-213 54 -340 164zM176 0v1307h137v-1307h-137z" />
<glyph unicode="&#xcd;" horiz-adv-x="489" d="M76 1538q110 31 213 85.5t174 127.5l26 -121q-129 -111 -339 -164zM176 0v1307h137v-1307h-137z" />
<glyph unicode="&#xce;" horiz-adv-x="489" d="M-20 1536q150 68 266 227q113 -159 266 -227l-72 -70q-124 59 -194 142q-72 -83 -197 -142zM176 0v1307h137v-1307h-137z" />
<glyph unicode="&#xcf;" horiz-adv-x="489" d="M20 1569q0 26 32 65t54 39q24 0 55.5 -38.5t31.5 -65.5q0 -26 -31.5 -64.5t-55.5 -38.5q-22 0 -54 39t-32 64zM176 0v1307h137v-1307h-137zM303 1569q0 27 31 65.5t55 38.5t54 -38.5t30 -65.5q0 -26 -30 -64.5t-54 -38.5t-55 38.5t-31 64.5z" />
<glyph unicode="&#xd0;" horiz-adv-x="1327" d="M2 610v107h170v590h342q149 0 280 -44.5t229.5 -126t156 -206.5t57.5 -277t-57.5 -277t-156 -206.5t-229.5 -125.5t-280 -44h-342v610h-170zM309 119h183q175 0 310.5 60t215.5 182.5t80 291.5q0 170 -80 292.5t-215.5 182.5t-310.5 60h-183v-471h287l-25 -107h-262v-491 z" />
<glyph unicode="&#xd1;" horiz-adv-x="1419" d="M141 0v1307h97l606 -695q162 -184 297 -350l4 2q-4 117 -4 346v697h137v-1336h-37l-643 738q-154 177 -319 376l-5 -2q5 -151 5 -362v-721h-138zM422 1491l22 106q146 91 279 99l33 -115q103 8 237 90l-22 -104q-131 -93 -279 -99l-33 113q-111 -9 -237 -90z" />
<glyph unicode="&#xd2;" horiz-adv-x="1540" d="M86 655q0 147 56.5 274.5t150.5 214t218.5 136t258.5 49.5t258.5 -49.5t218.5 -136t150.5 -214t56.5 -274.5q0 -149 -56.5 -277.5t-150.5 -215t-218 -136t-259 -49.5t-259 49.5t-218 136t-150.5 215t-56.5 277.5zM225 655q0 -123 45 -228.5t120 -176.5t174 -111.5 t206 -40.5q143 0 267 68t201 197t77 292t-77 291.5t-201 196t-267 67.5q-107 0 -206 -40t-174 -111t-120 -176t-45 -228zM467 1630l27 121q71 -73 174 -127.5t213 -85.5l-74 -72q-213 54 -340 164z" />
<glyph unicode="&#xd3;" horiz-adv-x="1540" d="M86 655q0 147 56.5 274.5t150.5 214t218.5 136t258.5 49.5t258.5 -49.5t218.5 -136t150.5 -214t56.5 -274.5q0 -149 -56.5 -277.5t-150.5 -215t-218 -136t-259 -49.5t-259 49.5t-218 136t-150.5 215t-56.5 277.5zM225 655q0 -123 45 -228.5t120 -176.5t174 -111.5 t206 -40.5q143 0 267 68t201 197t77 292t-77 291.5t-201 196t-267 67.5q-107 0 -206 -40t-174 -111t-120 -176t-45 -228zM629 1538q110 31 213 85.5t174 127.5l26 -121q-129 -111 -340 -164z" />
<glyph unicode="&#xd4;" horiz-adv-x="1540" d="M86 655q0 147 56.5 274.5t150.5 214t218.5 136t258.5 49.5t258.5 -49.5t218.5 -136t150.5 -214t56.5 -274.5q0 -149 -56.5 -277.5t-150.5 -215t-218 -136t-259 -49.5t-259 49.5t-218 136t-150.5 215t-56.5 277.5zM225 655q0 -123 45 -228.5t120 -176.5t174 -111.5 t206 -40.5q143 0 267 68t201 197t77 292t-77 291.5t-201 196t-267 67.5q-107 0 -206 -40t-174 -111t-120 -176t-45 -228zM502 1536q150 68 266 227q113 -159 266 -227l-71 -70q-126 60 -195 142q-72 -83 -197 -142z" />
<glyph unicode="&#xd5;" horiz-adv-x="1540" d="M86 655q0 147 56.5 274.5t150.5 214t218.5 136t258.5 49.5t258.5 -49.5t218.5 -136t150.5 -214t56.5 -274.5q0 -149 -56.5 -277.5t-150.5 -215t-218 -136t-259 -49.5t-259 49.5t-218 136t-150.5 215t-56.5 277.5zM225 655q0 -123 45 -228.5t120 -176.5t174 -111.5 t206 -40.5q143 0 267 68t201 197t77 292t-77 291.5t-201 196t-267 67.5q-107 0 -206 -40t-174 -111t-120 -176t-45 -228zM473 1491l23 106q146 91 278 99l33 -115q103 8 237 90l-22 -104q-131 -93 -279 -99l-32 113q-112 -9 -238 -90z" />
<glyph unicode="&#xd6;" horiz-adv-x="1540" d="M86 655q0 147 56.5 274.5t150.5 214t218.5 136t258.5 49.5t258.5 -49.5t218.5 -136t150.5 -214t56.5 -274.5q0 -149 -56.5 -277.5t-150.5 -215t-218 -136t-259 -49.5t-259 49.5t-218 136t-150.5 215t-56.5 277.5zM225 655q0 -123 45 -228.5t120 -176.5t174 -111.5 t206 -40.5q143 0 267 68t201 197t77 292t-77 291.5t-201 196t-267 67.5q-107 0 -206 -40t-174 -111t-120 -176t-45 -228zM541 1569q0 26 32 65t54 39q24 0 55 -38.5t31 -65.5q0 -26 -31 -64.5t-55 -38.5q-22 0 -54 39t-32 64zM823 1569q0 27 31 65.5t55 38.5t54 -38.5 t30 -65.5q0 -26 -30 -64.5t-54 -38.5t-55 38.5t-31 64.5z" />
<glyph unicode="&#xd7;" horiz-adv-x="974" d="M168 299l260 258l-258 258l63 66l259 -260l256 256l63 -64l-256 -256l258 -258l-63 -63l-258 258l-259 -261z" />
<glyph unicode="&#xd8;" horiz-adv-x="1540" d="M86 655q0 147 56.5 274.5t150.5 214t218.5 136t258.5 49.5q215 0 395 -119l121 150l66 -55l-119 -148q103 -91 162 -219.5t59 -282.5q0 -149 -56.5 -277.5t-150.5 -215t-218 -136t-259 -49.5q-216 0 -393 119l-123 -151l-66 55l121 147q-105 94 -164 223.5t-59 284.5z M225 655q0 -242 166 -405l694 862q-143 98 -315 98q-107 0 -206 -40t-174 -111t-120 -176t-45 -228zM457 197q141 -99 313 -99q143 0 267 68t201 197t77 292q0 121 -43.5 224.5t-120.5 177.5z" />
<glyph unicode="&#xd9;" horiz-adv-x="1302" d="M141 453v854h138v-842q0 -171 98 -268t276 -97q176 0 275.5 97t99.5 268v842h133v-854q0 -220 -140 -348t-370 -128t-370 128t-140 348zM356 1630l27 121q71 -73 174 -127.5t213 -85.5l-74 -72q-213 54 -340 164z" />
<glyph unicode="&#xda;" horiz-adv-x="1302" d="M141 453v854h138v-842q0 -171 98 -268t276 -97q176 0 275.5 97t99.5 268v842h133v-854q0 -220 -140 -348t-370 -128t-370 128t-140 348zM526 1538q110 31 213 85.5t174 127.5l27 -121q-129 -111 -340 -164z" />
<glyph unicode="&#xdb;" horiz-adv-x="1302" d="M141 453v854h138v-842q0 -171 98 -268t276 -97q176 0 275.5 97t99.5 268v842h133v-854q0 -220 -140 -348t-370 -128t-370 128t-140 348zM387 1536q150 68 266 227q112 -158 267 -227l-72 -70q-126 60 -195 142q-73 -84 -196 -142z" />
<glyph unicode="&#xdc;" horiz-adv-x="1302" d="M141 453v854h138v-842q0 -171 98 -268t276 -97q176 0 275.5 97t99.5 268v842h133v-854q0 -220 -140 -348t-370 -128t-370 128t-140 348zM428 1569q0 26 32 65t54 39q24 0 55 -38.5t31 -65.5q0 -26 -31 -64.5t-55 -38.5q-22 0 -54 39t-32 64zM711 1569q0 27 31 65.5 t55 38.5t54 -38.5t30 -65.5q0 -26 -30 -64.5t-54 -38.5t-55 38.5t-31 64.5z" />
<glyph unicode="&#xdd;" horiz-adv-x="1183" d="M25 1307h151l283 -400q97 -139 135 -198h4q66 101 135 198l285 400h141l-502 -703v-604h-135v604zM455 1538q110 31 213 85.5t174 127.5l26 -121q-129 -111 -340 -164z" />
<glyph unicode="&#xde;" horiz-adv-x="925" d="M141 0v1311h138v-156h227q101 0 187.5 -41t141 -123.5t54.5 -189.5q0 -81 -32 -149t-84.5 -112.5t-119.5 -69t-139 -24.5h-235v-446h-138zM279 565h213q108 0 183 64t75 172q0 107 -77 171t-190 64h-204v-471z" />
<glyph unicode="&#xdf;" horiz-adv-x="1071" d="M141 0v995q0 231 100 351t273 120q168 0 268.5 -112.5t100.5 -302.5q0 -90 -35 -197q-289 0 -289 -147q0 -59 40.5 -96.5t121.5 -67.5q141 -50 212 -120.5t71 -180.5q0 -117 -86 -189.5t-232 -72.5q-81 0 -150.5 21t-113.5 54v129q124 -94 266 -94q80 0 133 40t53 106 q0 117 -172 178q-135 48 -201.5 115.5t-66.5 172.5q0 111 84.5 179.5t216.5 68.5q19 59 19 117q0 72 -25 136t-81 108.5t-134 44.5q-119 0 -181.5 -92.5t-62.5 -237.5v-1026h-129z" />
<glyph unicode="&#xe0;" horiz-adv-x="913" d="M76 252q0 128 86 202t211 85l248 24v88q0 85 -58.5 135t-161.5 50q-65 0 -132 -19.5t-113 -50.5l-27 108q109 74 279 74q153 0 248.5 -81.5t95.5 -227.5v-424q0 -65 33 -104.5t81 -47.5l-84 -83q-49 9 -89.5 49t-49.5 92q-37 -64 -110.5 -102.5t-159.5 -38.5 q-129 0 -213 78.5t-84 193.5zM176 1225l23 104q120 -123 329 -182l-63 -62q-178 47 -289 140zM201 252q0 -69 51 -115.5t125 -46.5q90 0 167 68.5t77 171.5v125l-228 -21q-89 -7 -140.5 -56.5t-51.5 -125.5z" />
<glyph unicode="&#xe1;" horiz-adv-x="913" d="M76 252q0 128 86 202t211 85l248 24v88q0 85 -58.5 135t-161.5 50q-65 0 -132 -19.5t-113 -50.5l-27 108q109 74 279 74q153 0 248.5 -81.5t95.5 -227.5v-424q0 -65 33 -104.5t81 -47.5l-84 -83q-49 9 -89.5 49t-49.5 92q-37 -64 -110.5 -102.5t-159.5 -38.5 q-129 0 -213 78.5t-84 193.5zM201 252q0 -69 51 -115.5t125 -46.5q90 0 167 68.5t77 171.5v125l-228 -21q-89 -7 -140.5 -56.5t-51.5 -125.5zM279 1147q209 59 329 182l23 -104q-112 -94 -289 -140z" />
<glyph unicode="&#xe2;" horiz-adv-x="913" d="M76 252q0 128 86 202t211 85l248 24v88q0 85 -58.5 135t-161.5 50q-65 0 -132 -19.5t-113 -50.5l-27 108q109 74 279 74q153 0 248.5 -81.5t95.5 -227.5v-424q0 -65 33 -104.5t81 -47.5l-84 -83q-49 9 -89.5 49t-49.5 92q-37 -64 -110.5 -102.5t-159.5 -38.5 q-129 0 -213 78.5t-84 193.5zM188 1145q132 60 228 194q93 -134 225 -194l-59 -58q-106 48 -166 119q-63 -71 -168 -119zM201 252q0 -69 51 -115.5t125 -46.5q90 0 167 68.5t77 171.5v125l-228 -21q-89 -7 -140.5 -56.5t-51.5 -125.5z" />
<glyph unicode="&#xe3;" horiz-adv-x="913" d="M76 252q0 128 86 202t211 85l248 24v88q0 85 -58.5 135t-161.5 50q-65 0 -132 -19.5t-113 -50.5l-27 108q109 74 279 74q153 0 248.5 -81.5t95.5 -227.5v-424q0 -65 33 -104.5t81 -47.5l-84 -83q-49 9 -89.5 49t-49.5 92q-37 -64 -110.5 -102.5t-159.5 -38.5 q-129 0 -213 78.5t-84 193.5zM193 1108l20 90q124 76 236 84l28 -98q92 8 203 78l-21 -91q-108 -78 -235 -84l-29 97q-90 -6 -202 -76zM201 252q0 -69 51 -115.5t125 -46.5q90 0 167 68.5t77 171.5v125l-228 -21q-89 -7 -140.5 -56.5t-51.5 -125.5z" />
<glyph unicode="&#xe4;" horiz-adv-x="913" d="M76 252q0 128 86 202t211 85l248 24v88q0 85 -58.5 135t-161.5 50q-65 0 -132 -19.5t-113 -50.5l-27 108q109 74 279 74q153 0 248.5 -81.5t95.5 -227.5v-424q0 -65 33 -104.5t81 -47.5l-84 -83q-49 9 -89.5 49t-49.5 92q-37 -64 -110.5 -102.5t-159.5 -38.5 q-129 0 -213 78.5t-84 193.5zM201 252q0 -69 51 -115.5t125 -46.5q90 0 167 68.5t77 171.5v125l-228 -21q-89 -7 -140.5 -56.5t-51.5 -125.5zM227 1174q0 23 27.5 55.5t46.5 32.5q21 0 47.5 -32t26.5 -56q0 -23 -26.5 -55t-47.5 -32q-19 0 -46.5 32.5t-27.5 54.5zM469 1174 q0 24 26 56t46 32q21 0 46 -32t25 -56q0 -23 -25 -55t-46 -32q-20 0 -46 32.5t-26 54.5z" />
<glyph unicode="&#xe5;" horiz-adv-x="913" d="M76 252q0 128 86 202t211 85l248 24v88q0 85 -58.5 135t-161.5 50q-65 0 -132 -19.5t-113 -50.5l-27 108q109 74 279 74q153 0 248.5 -81.5t95.5 -227.5v-424q0 -65 33 -104.5t81 -47.5l-84 -83q-49 9 -89.5 49t-49.5 92q-37 -64 -110.5 -102.5t-159.5 -38.5 q-129 0 -213 78.5t-84 193.5zM201 252q0 -69 51 -115.5t125 -46.5q90 0 167 68.5t77 171.5v125l-228 -21q-89 -7 -140.5 -56.5t-51.5 -125.5zM240 1245q0 72 51.5 123t122.5 51q72 0 124 -51t52 -123q0 -73 -52 -124.5t-124 -51.5q-71 0 -122.5 51.5t-51.5 124.5zM309 1245 q0 -44 30.5 -74t74.5 -30t74 30t30 74t-30 73.5t-74 29.5t-74.5 -29.5t-30.5 -73.5z" />
<glyph unicode="&#xe6;" horiz-adv-x="1536" d="M76 254q0 130 86 203t221 86l238 22v86q0 85 -58.5 135t-161.5 50q-65 0 -132 -19.5t-113 -50.5l-27 108q109 74 279 74q116 0 200 -49.5t111 -140.5q61 89 154.5 139.5t195.5 50.5q92 0 168 -30t123.5 -79.5t73.5 -110.5t26 -126q0 -36 -6 -63l-76 -76h-620 q-6 -93 38 -177.5t131 -138t197 -53.5q166 0 291 92l-37 -143q-111 -63 -268 -63q-126 0 -233 57t-172 156q-42 -101 -131 -157t-197 -56q-135 0 -218 77.5t-83 196.5zM201 252q0 -70 51 -116t125 -46q90 0 167 68.5t77 171.5v127l-218 -21q-97 -9 -149.5 -58t-52.5 -126z M768 569h559q2 8 2 27q0 91 -68.5 165.5t-185.5 74.5q-111 0 -200 -81t-107 -186z" />
<glyph unicode="&#xe7;" horiz-adv-x="935" d="M76 463q0 108 40 200t108 153.5t158.5 96.5t190.5 35q166 0 291 -71l-26 -115q-110 72 -258 72q-159 0 -266 -104.5t-107 -266.5q0 -161 108.5 -265t268.5 -104q142 0 272 68l-33 -131q-48 -27 -119.5 -40t-136.5 -11l-10 -39q60 -2 109 -47.5t49 -116.5 q0 -81 -54 -124.5t-126 -43.5q-76 0 -134 41l17 65q52 -37 117 -37q40 0 70 26t30 71q0 44 -32.5 70t-74.5 26q-36 0 -43 -2l29 115q-188 21 -313 151t-125 328z" />
<glyph unicode="&#xe8;" horiz-adv-x="989" d="M76 463q0 108 39 201t102.5 154t143.5 95.5t163 34.5q92 0 167.5 -30t123 -79.5t73 -110.5t25.5 -126q0 -45 -4 -63l-78 -76h-620q-9 -144 97.5 -256.5t271.5 -112.5t290 92l-36 -143q-111 -63 -269 -63q-133 0 -244.5 60.5t-178 172t-66.5 250.5zM221 569h561q2 8 2 27 q0 91 -68.5 165.5t-185.5 74.5q-111 0 -200.5 -81t-108.5 -186zM305 1225l23 104q120 -123 329 -182l-63 -62q-178 47 -289 140z" />
<glyph unicode="&#xe9;" horiz-adv-x="989" d="M76 463q0 108 39 201t102.5 154t143.5 95.5t163 34.5q92 0 167.5 -30t123 -79.5t73 -110.5t25.5 -126q0 -45 -4 -63l-78 -76h-620q-9 -144 97.5 -256.5t271.5 -112.5t290 92l-36 -143q-111 -63 -269 -63q-133 0 -244.5 60.5t-178 172t-66.5 250.5zM221 569h561q2 8 2 27 q0 91 -68.5 165.5t-185.5 74.5q-111 0 -200.5 -81t-108.5 -186zM406 1147q209 59 329 182l23 -104q-112 -94 -289 -140z" />
<glyph unicode="&#xea;" horiz-adv-x="989" d="M76 463q0 108 39 201t102.5 154t143.5 95.5t163 34.5q92 0 167.5 -30t123 -79.5t73 -110.5t25.5 -126q0 -45 -4 -63l-78 -76h-620q-9 -144 97.5 -256.5t271.5 -112.5t290 92l-36 -143q-111 -63 -269 -63q-133 0 -244.5 60.5t-178 172t-66.5 250.5zM221 569h561q2 8 2 27 q0 91 -68.5 165.5t-185.5 74.5q-111 0 -200.5 -81t-108.5 -186zM307 1145q133 62 228 194q93 -134 225 -194l-62 -58q-103 48 -163 119q-61 -69 -168 -119z" />
<glyph unicode="&#xeb;" horiz-adv-x="989" d="M76 463q0 108 39 201t102.5 154t143.5 95.5t163 34.5q92 0 167.5 -30t123 -79.5t73 -110.5t25.5 -126q0 -45 -4 -63l-78 -76h-620q-9 -144 97.5 -256.5t271.5 -112.5t290 92l-36 -143q-111 -63 -269 -63q-133 0 -244.5 60.5t-178 172t-66.5 250.5zM221 569h561q2 8 2 27 q0 91 -68.5 165.5t-185.5 74.5q-111 0 -200.5 -81t-108.5 -186zM334 1174q0 23 27.5 55.5t46.5 32.5q20 0 45.5 -32t25.5 -56q0 -22 -25.5 -54.5t-45.5 -32.5q-19 0 -46.5 32.5t-27.5 54.5zM573 1174q0 24 26.5 56t47.5 32t46.5 -32t25.5 -56q0 -23 -25.5 -55t-46.5 -32 t-47.5 32t-26.5 55z" />
<glyph unicode="&#xec;" horiz-adv-x="471" d="M0 1225l23 104q120 -123 329 -182l-63 -62q-178 47 -289 140zM170 0v928h131v-928h-131z" />
<glyph unicode="&#xed;" horiz-adv-x="471" d="M119 1147q210 59 330 182l22 -104q-112 -94 -289 -140zM170 0v928h131v-928h-131z" />
<glyph unicode="&#xee;" horiz-adv-x="471" d="M8 1145q132 60 228 194q93 -134 225 -194l-60 -58q-104 48 -165 119q-63 -71 -168 -119zM170 0v928h131v-928h-131z" />
<glyph unicode="&#xef;" horiz-adv-x="471" d="M41 1174q0 23 27.5 55.5t46.5 32.5q21 0 47 -32t26 -56q0 -23 -26 -55t-47 -32q-19 0 -46.5 32.5t-27.5 54.5zM170 0v928h131v-928h-131zM283 1174q0 24 25.5 56t45.5 32q21 0 46.5 -32t25.5 -56q0 -23 -25.5 -55t-46.5 -32q-20 0 -45.5 32.5t-25.5 54.5z" />
<glyph unicode="&#xf0;" horiz-adv-x="1007" d="M78 397q0 145 84 253t221 157q55 20 136.5 37.5t142.5 23.5l-134 297l-184 -75l-33 73l183 76l-99 219h109l80 -180l164 68l32 -76l-164 -68l232 -512q29 -63 50.5 -138.5t21.5 -123.5q0 -109 -34.5 -196t-94 -142t-136 -84t-163.5 -29q-177 0 -295.5 119.5t-118.5 300.5 zM180 397q0 -144 89 -236.5t220 -92.5q136 0 233 96t97 264q0 110 -119 354q-155 -12 -270 -55q-250 -99 -250 -330z" />
<glyph unicode="&#xf1;" horiz-adv-x="1019" d="M121 0v928h117l4 -113q91 133 303 133q156 0 255 -87t99 -236v-625h-129v612q0 100 -67.5 162t-188.5 62q-119 0 -191.5 -63t-72.5 -161v-612h-129zM258 1108l18 90q124 76 238 84l27 -98q90 8 202 78l-18 -91q-112 -78 -238 -84l-28 97q-89 -6 -201 -76z" />
<glyph unicode="&#xf2;" horiz-adv-x="1128" d="M76 463q0 139 64.5 250.5t176 173t248.5 61.5t248.5 -61.5t175.5 -173t64 -250.5t-64 -250t-175.5 -172t-248.5 -61q-209 0 -349 136.5t-140 346.5zM207 463q0 -161 103 -265t255 -104q150 0 253.5 104.5t103.5 264.5q0 161 -103.5 266t-253.5 105q-152 0 -255 -105 t-103 -266zM322 1225l22 104q120 -123 330 -182l-64 -62q-177 47 -288 140z" />
<glyph unicode="&#xf3;" horiz-adv-x="1128" d="M76 463q0 139 64.5 250.5t176 173t248.5 61.5t248.5 -61.5t175.5 -173t64 -250.5t-64 -250t-175.5 -172t-248.5 -61q-209 0 -349 136.5t-140 346.5zM207 463q0 -161 103 -265t255 -104q150 0 253.5 104.5t103.5 264.5q0 161 -103.5 266t-253.5 105q-152 0 -255 -105 t-103 -266zM457 1147q209 59 329 182l23 -104q-112 -94 -289 -140z" />
<glyph unicode="&#xf4;" horiz-adv-x="1128" d="M76 463q0 139 64.5 250.5t176 173t248.5 61.5t248.5 -61.5t175.5 -173t64 -250.5t-64 -250t-175.5 -172t-248.5 -61q-209 0 -349 136.5t-140 346.5zM207 463q0 -161 103 -265t255 -104q150 0 253.5 104.5t103.5 264.5q0 161 -103.5 266t-253.5 105q-152 0 -255 -105 t-103 -266zM338 1145q130 59 227 194q93 -133 226 -194l-60 -58q-106 48 -166 119q-61 -69 -168 -119z" />
<glyph unicode="&#xf5;" horiz-adv-x="1128" d="M76 463q0 139 64.5 250.5t176 173t248.5 61.5t248.5 -61.5t175.5 -173t64 -250.5t-64 -250t-175.5 -172t-248.5 -61q-209 0 -349 136.5t-140 346.5zM207 463q0 -161 103 -265t255 -104q150 0 253.5 104.5t103.5 264.5q0 161 -103.5 266t-253.5 105q-152 0 -255 -105 t-103 -266zM319 1108l21 90q124 76 235 84l29 -98q90 8 201 78l-19 -91q-108 -78 -237 -84l-27 97q-91 -5 -203 -76z" />
<glyph unicode="&#xf6;" horiz-adv-x="1128" d="M76 463q0 139 64.5 250.5t176 173t248.5 61.5t248.5 -61.5t175.5 -173t64 -250.5t-64 -250t-175.5 -172t-248.5 -61q-209 0 -349 136.5t-140 346.5zM207 463q0 -161 103 -265t255 -104q150 0 253.5 104.5t103.5 264.5q0 161 -103.5 266t-253.5 105q-152 0 -255 -105 t-103 -266zM375 1174q0 23 26 55.5t45 32.5q21 0 47.5 -32t26.5 -56q0 -23 -26.5 -55t-47.5 -32q-19 0 -45 32.5t-26 54.5zM614 1174q0 24 26.5 56t47.5 32q20 0 45 -32t25 -56q0 -22 -25 -54.5t-45 -32.5q-21 0 -47.5 32t-26.5 55z" />
<glyph unicode="&#xf7;" horiz-adv-x="948" d="M90 512v111h766v-111h-766zM389 319q0 27 30 65t54 38t54 -38t30 -65t-30 -64.5t-54 -37.5t-54 37.5t-30 64.5zM389 817q0 27 30 65t54 38t54 -38t30 -65t-30 -64.5t-54 -37.5t-54 37.5t-30 64.5z" />
<glyph unicode="&#xf8;" horiz-adv-x="1120" d="M76 463q0 139 64.5 250.5t176 173t248.5 61.5q153 0 271 -76l90 111l63 -53l-88 -109q72 -66 112 -158t40 -200q0 -139 -64 -250t-175.5 -172t-248.5 -61q-153 0 -276 77l-90 -112l-64 53l88 111q-147 140 -147 354zM207 463q0 -152 94 -256l459 569q-86 58 -195 58 q-152 0 -255 -105t-103 -266zM365 152q89 -58 200 -58q150 0 253.5 104.5t103.5 264.5q0 153 -99 260z" />
<glyph unicode="&#xf9;" horiz-adv-x="1019" d="M121 303v625h129v-613q0 -100 67.5 -161.5t188.5 -61.5q119 0 191.5 62.5t72.5 160.5v613h129v-928h-117l-4 113q-91 -133 -303 -133q-156 0 -255 87t-99 236zM258 1225l23 104q120 -123 329 -182l-63 -62q-178 47 -289 140z" />
<glyph unicode="&#xfa;" horiz-adv-x="1019" d="M121 303v625h129v-613q0 -100 67.5 -161.5t188.5 -61.5q119 0 191.5 62.5t72.5 160.5v613h129v-928h-117l-4 113q-91 -133 -303 -133q-156 0 -255 87t-99 236zM426 1147q210 59 330 182l22 -104q-112 -94 -289 -140z" />
<glyph unicode="&#xfb;" horiz-adv-x="1019" d="M121 303v625h129v-613q0 -100 67.5 -161.5t188.5 -61.5q119 0 191.5 62.5t72.5 160.5v613h129v-928h-117l-4 113q-91 -133 -303 -133q-156 0 -255 87t-99 236zM293 1145q130 59 227 194q93 -134 225 -194l-59 -58q-106 48 -166 119q-61 -69 -168 -119z" />
<glyph unicode="&#xfc;" horiz-adv-x="1019" d="M121 303v625h129v-613q0 -100 67.5 -161.5t188.5 -61.5q119 0 191.5 62.5t72.5 160.5v613h129v-928h-117l-4 113q-91 -133 -303 -133q-156 0 -255 87t-99 236zM322 1174q0 23 27 55.5t46 32.5q21 0 47.5 -32t26.5 -56q0 -23 -26.5 -55t-47.5 -32q-19 0 -46 32.5t-27 54.5 zM563 1174q0 24 26 56t46 32q21 0 46.5 -32t25.5 -56q0 -23 -25.5 -55t-46.5 -32q-20 0 -46 32.5t-26 54.5z" />
<glyph unicode="&#xfd;" horiz-adv-x="950" d="M-16 -395q134 42 235 154t191 323l-359 846h135l199 -467q59 -142 92 -234h4q47 126 92 230l201 471h125l-360 -848q-103 -243 -218 -374.5t-258 -182.5zM377 1147q210 59 330 182l22 -104q-112 -94 -289 -140z" />
<glyph unicode="&#xfe;" horiz-adv-x="1083" d="M135 -473v1931h129v-596q103 86 277 86q69 0 136.5 -21t127 -62.5t105 -98.5t72 -135t26.5 -166q0 -139 -64 -250.5t-175.5 -173t-248.5 -61.5q-75 0 -143.5 21.5t-112.5 53.5v-528h-129zM264 193q43 -43 112 -71t144 -28q152 0 254.5 105t102.5 266t-102.5 265 t-254.5 104q-158 0 -256 -101v-540z" />
<glyph unicode="&#xff;" horiz-adv-x="950" d="M-16 -395q134 42 235 154t191 323l-359 846h135l199 -467q59 -142 92 -234h4q47 126 92 230l201 471h125l-360 -848q-103 -243 -218 -374.5t-258 -182.5zM283 1167q0 22 27 55t46 33q20 0 47 -33t27 -55t-27 -55t-47 -33q-19 0 -46 33t-27 55zM522 1167q0 22 27 55t47 33 q21 0 46.5 -32.5t25.5 -55.5t-25.5 -55.5t-46.5 -32.5q-20 0 -47 33t-27 55z" />
<glyph unicode="&#x152;" horiz-adv-x="1955" d="M86 655q0 147 56.5 274.5t150.5 214t218.5 136t258.5 49.5q216 0 393 -121v99h682v-119h-545v-471h447v-119h-447v-479h617v-119h-754v100q-175 -123 -393 -123q-135 0 -259 49.5t-218 136t-150.5 215t-56.5 277.5zM225 655q0 -123 45 -228.5t120 -176.5t174 -111.5 t206 -40.5q111 0 214 42t179 116v797q-76 73 -179 115t-214 42q-107 0 -206 -40t-174 -111t-120 -176t-45 -228z" />
<glyph unicode="&#x153;" horiz-adv-x="1835" d="M76 463q0 139 64.5 250.5t176 173t248.5 61.5q138 0 250 -66t170 -177q58 112 162.5 177.5t220.5 65.5q92 0 168.5 -30t124 -79.5t73 -110.5t25.5 -126q0 -27 -4 -63l-78 -76h-620q-9 -145 96.5 -257t271.5 -112q164 0 289 92l-37 -143q-111 -63 -268 -63 q-137 0 -249.5 65.5t-170.5 179.5q-59 -113 -172 -179t-252 -66q-209 0 -349 136.5t-140 346.5zM207 463q0 -161 103 -265t255 -104q150 0 253.5 104.5t103.5 264.5q0 161 -103.5 266t-253.5 105q-152 0 -255 -105t-103 -266zM1067 569h559q2 8 2 27q0 91 -68.5 165.5 t-185.5 74.5q-110 0 -199 -81t-108 -186z" />
<glyph unicode="&#x178;" horiz-adv-x="1183" d="M25 1307h151l283 -400q97 -139 135 -198h4q66 101 135 198l285 400h141l-502 -703v-604h-135v604zM360 1569q0 26 32 65t54 39q24 0 55 -38.5t31 -65.5q0 -26 -31 -64.5t-55 -38.5q-22 0 -54 39t-32 64zM643 1569q0 27 31 65.5t55 38.5t54 -38.5t30 -65.5 q0 -26 -30 -64.5t-54 -38.5t-55 38.5t-31 64.5z" />
<glyph unicode="&#x2c6;" horiz-adv-x="737" d="M102 1126q150 68 267 228q114 -160 266 -228l-72 -69q-125 60 -194 141q-71 -81 -197 -141z" />
<glyph unicode="&#x2dc;" horiz-adv-x="737" d="M84 1081l22 107q145 90 279 98l33 -115q102 8 237 91l-22 -105q-129 -92 -279 -98l-32 112q-112 -9 -238 -90z" />
<glyph unicode="&#x2000;" horiz-adv-x="929" />
<glyph unicode="&#x2001;" horiz-adv-x="1858" />
<glyph unicode="&#x2002;" horiz-adv-x="929" />
<glyph unicode="&#x2003;" horiz-adv-x="1858" />
<glyph unicode="&#x2004;" horiz-adv-x="619" />
<glyph unicode="&#x2005;" horiz-adv-x="464" />
<glyph unicode="&#x2006;" horiz-adv-x="309" />
<glyph unicode="&#x2007;" horiz-adv-x="309" />
<glyph unicode="&#x2008;" horiz-adv-x="232" />
<glyph unicode="&#x2009;" horiz-adv-x="371" />
<glyph unicode="&#x200a;" horiz-adv-x="103" />
<glyph unicode="&#x2010;" horiz-adv-x="692" d="M90 512v111h512v-111h-512z" />
<glyph unicode="&#x2011;" horiz-adv-x="692" d="M90 512v111h512v-111h-512z" />
<glyph unicode="&#x2012;" horiz-adv-x="692" d="M90 512v111h512v-111h-512z" />
<glyph unicode="&#x2013;" horiz-adv-x="1204" d="M90 512v111h1024v-111h-1024z" />
<glyph unicode="&#x2014;" horiz-adv-x="1716" d="M90 512v111h1536v-111h-1536z" />
<glyph unicode="&#x2018;" horiz-adv-x="382" d="M96 1130q0 58 52 158.5t118 169.5l60 -8q-46 -59 -77.5 -121.5t-35.5 -105.5q22 -7 49 -37.5t27 -55.5q0 -29 -35.5 -70.5t-60.5 -41.5q-24 0 -60.5 41t-36.5 71z" />
<glyph unicode="&#x2019;" horiz-adv-x="382" d="M57 1036q45 56 76 119.5t37 108.5q-23 6 -49.5 36t-26.5 54q0 30 35.5 72t60.5 42t61 -41t36 -73q0 -57 -52.5 -157.5t-119.5 -168.5z" />
<glyph unicode="&#x201a;" horiz-adv-x="382" d="M57 -227q45 56 76 119t37 108q-23 6 -49.5 36.5t-26.5 55.5q0 29 35.5 71t60.5 42t61 -41.5t36 -71.5q0 -59 -52.5 -159t-119.5 -169z" />
<glyph unicode="&#x201c;" horiz-adv-x="700" d="M96 1130q0 58 52 158.5t118 169.5l60 -8q-46 -57 -77.5 -120t-35.5 -107q22 -7 49 -37.5t27 -55.5q0 -29 -35.5 -70.5t-60.5 -41.5q-24 0 -60.5 41t-36.5 71zM414 1133q0 57 52 156.5t118 170.5l59 -10q-46 -57 -77.5 -120t-35.5 -107q22 -6 49 -36.5t27 -53.5 q0 -31 -35.5 -73t-60.5 -42q-24 0 -60 42t-36 73z" />
<glyph unicode="&#x201d;" horiz-adv-x="700" d="M57 1036q45 56 76 119.5t37 108.5q-23 6 -49.5 36t-26.5 54q0 30 35.5 72t60.5 42q24 0 60.5 -41.5t36.5 -72.5q0 -57 -52.5 -157.5t-119.5 -168.5zM375 1036q45 56 76 120t36 108q-22 6 -48.5 36.5t-26.5 53.5q0 30 35.5 72t60.5 42q24 0 60 -41.5t36 -72.5 q0 -57 -52 -157t-118 -169z" />
<glyph unicode="&#x201e;" horiz-adv-x="681" d="M51 -227q44 57 75.5 120t37.5 107q-23 6 -49.5 36.5t-26.5 55.5q0 30 35 71.5t61 41.5q23 0 60 -41.5t37 -71.5q0 -58 -53 -158.5t-119 -169.5zM369 -225q44 56 75 119t37 106q-23 6 -49 37t-26 55q0 29 35.5 71t60.5 42q24 0 60 -41.5t36 -71.5q0 -57 -53 -158 t-119 -170z" />
<glyph unicode="&#x2022;" horiz-adv-x="765" d="M111 567q0 118 78 194.5t194 76.5q117 0 194.5 -76.5t77.5 -194.5t-77 -193t-195 -75q-117 0 -194.5 75.5t-77.5 192.5z" />
<glyph unicode="&#x2026;" horiz-adv-x="1050" d="M92 92q0 28 35 70.5t61 42.5t61.5 -42.5t35.5 -70.5t-35.5 -70t-61.5 -42t-61 42t-35 70zM428 92q0 28 35 70.5t61 42.5t61.5 -42.5t35.5 -70.5t-35.5 -70t-61.5 -42t-61 42t-35 70zM764 92q0 28 35 70.5t61 42.5q27 0 62.5 -42t35.5 -71t-35.5 -70.5t-62.5 -41.5 q-26 0 -61 42t-35 70z" />
<glyph unicode="&#x202f;" horiz-adv-x="371" />
<glyph unicode="&#x2039;" horiz-adv-x="462" d="M10 567q101 67 187 158.5t139 187.5l74 -73q-74 -153 -220 -273q149 -122 220 -272l-74 -74q-54 97 -140.5 190t-185.5 156z" />
<glyph unicode="&#x203a;" horiz-adv-x="462" d="M51 295q71 151 219 272q-67 55 -125 126.5t-94 146.5l74 73q54 -96 140.5 -187.5t187.5 -158.5q-99 -63 -186 -155.5t-142 -190.5z" />
<glyph unicode="&#x205f;" horiz-adv-x="464" />
<glyph unicode="&#x2122;" horiz-adv-x="851" d="M45 1253v54h289v-54h-115v-325h-59v325h-115zM360 928l29 379h39l139 -285l138 285h40l29 -379h-57l-19 243l-123 -245h-22l-119 241l-18 -239h-56z" />
<glyph unicode="&#x25fc;" horiz-adv-x="931" d="M0 0v932h932v-932h-932z" />
<glyph unicode="&#xfb01;" horiz-adv-x="1044" d="M35 821v107h147v102q0 210 109 323t289 113q118 0 196 -45l-26 -110q-72 45 -183 45q-113 0 -183.5 -83t-70.5 -218v-127h561v-928h-129v821h-432v-821h-131v821h-147z" />
<glyph unicode="&#xfb02;" horiz-adv-x="1126" d="M35 821v107h147v65q0 217 125.5 345t321.5 128q176 0 280 -82v-1163q0 -64 33.5 -106.5t85.5 -53.5l-90 -88q-65 18 -112.5 75t-47.5 159v1116q-58 33 -166 33q-129 0 -214 -93t-85 -245v-90h230l-25 -107h-205v-821h-131v821h-147z" />
</font>
</defs>
</svg>
