<?xml version="1.0" standalone="no"?>
<!DOCTYPE svg PUBLIC "-//W3C//DTD SVG 1.1//EN" "http://www.w3.org/Graphics/SVG/1.1/DTD/svg11.dtd" >
<svg xmlns="http://www.w3.org/2000/svg" xmlns:xlink="http://www.w3.org/1999/xlink" version="1.1">
<metadata></metadata>
<defs>
<font id="agendamedium" horiz-adv-x="1548" >
<font-face units-per-em="2048" ascent="1638" descent="-410" />
<missing-glyph horiz-adv-x="471" />
<glyph horiz-adv-x="0" />
<glyph unicode="&#xd;" horiz-adv-x="471" />
<glyph unicode=" "  horiz-adv-x="471" />
<glyph unicode="&#x09;" horiz-adv-x="471" />
<glyph unicode="&#xa0;" horiz-adv-x="471" />
<glyph unicode="!" horiz-adv-x="546" d="M156 102q0 -16 13 -36.5t33.5 -41t41 -34t37.5 -13.5q14 0 35.5 13.5t42 34t34 41t13.5 36.5q0 14 -13.5 36t-34 41.5t-42 32.5t-35.5 13q-16 0 -37 -13t-41.5 -32.5t-33.5 -41t-13 -36.5zM164 1397l33 -1028l153 -35l33 1063h-219z" />
<glyph unicode="&#x22;" horiz-adv-x="641" d="M80 1458l31 -469h98l37 469h-166zM395 1458l33 -469h98l35 469h-166z" />
<glyph unicode="#" horiz-adv-x="882" d="M55 412h99l-95 -412h134l94 412h194l-94 -412h133l94 412h160v118h-131l57 246h125v119h-96l94 412h-133l-94 -412h-195l95 412h-134l-94 -412h-162v-119h134l-58 -246h-127v-118zM315 530l58 246h194l-57 -246h-195z" />
<glyph unicode="$" horiz-adv-x="958" d="M80 76q59 -41 138 -68.5t183 -32.5v-174h117v181q88 10 154.5 44.5t109.5 87t64.5 117t21.5 134.5q0 74 -28.5 136t-78.5 113.5t-121 92.5t-155 73q-104 41 -160.5 91.5t-56.5 117.5q0 37 15.5 70t44 57.5t68.5 39.5t91 15q76 0 140.5 -19t120.5 -50l36 160 q-51 29 -112.5 48t-153.5 23v176h-117v-182q-152 -27 -233.5 -123t-81.5 -231q0 -131 98.5 -227.5t264.5 -155.5q115 -41 175 -102.5t60 -139.5q0 -43 -17.5 -81t-50 -66.5t-80 -45t-108.5 -16.5q-98 0 -176 33t-131 74z" />
<glyph unicode="%" horiz-adv-x="1425" d="M74 1040q0 -66 22.5 -120t61.5 -93t92 -60.5t115 -21.5q63 0 116.5 21.5t92 60.5t61 93t22.5 120q0 63 -22.5 117.5t-61 93.5t-92 60.5t-116.5 21.5q-61 0 -114.5 -21.5t-92.5 -60.5t-61.5 -93t-22.5 -118zM129 27l90 -76l1075 1331l-90 76zM225 1040q0 70 40 110t100 40 q57 0 99 -40t42 -110q0 -72 -42 -112.5t-99 -40.5q-59 0 -99.5 41t-40.5 112zM768 270q0 -66 22.5 -120t61.5 -93t92 -60.5t117 -21.5q61 0 114.5 21.5t92.5 60.5t61.5 93t22.5 120q0 63 -22.5 117.5t-61.5 93.5t-92.5 60.5t-114.5 21.5q-63 0 -116.5 -21.5t-92.5 -60.5 t-61.5 -93t-22.5 -118zM920 270q0 70 40.5 109t100.5 39q57 0 98 -39t41 -109q0 -72 -41 -113.5t-98 -41.5q-59 0 -100 42t-41 113z" />
<glyph unicode="&#x26;" horiz-adv-x="1236" d="M80 328q0 -72 30.5 -135.5t86 -111.5t131 -77t168.5 -29q129 0 227 40t174 102l117 -117h252l-248 248q53 72 88 144.5t53 127.5l-125 127q-23 -66 -57.5 -138.5t-81.5 -137.5l-285 284q49 25 94.5 62t81 81t56 96t20.5 110q0 76 -31.5 136t-82 103t-115 66.5 t-129.5 23.5q-63 0 -125 -23.5t-110 -66.5t-77.5 -103.5t-29.5 -135.5q0 -82 45 -164t117 -150q-115 -59 -179.5 -145t-64.5 -217zM268 338q0 82 43 134t133 97l330 -329q-59 -47 -125.5 -75t-142.5 -28q-49 0 -92 15.5t-76 43t-51.5 64.5t-18.5 78zM340 1001q0 31 12.5 62 t35 55.5t52 40t64.5 15.5q37 0 69.5 -15.5t57 -40t39 -55.5t14.5 -62q0 -57 -51 -117.5t-144 -107.5q-70 68 -109.5 120t-39.5 105z" />
<glyph unicode="'" horiz-adv-x="325" d="M80 1458l31 -469h98l37 469h-166z" />
<glyph unicode="(" horiz-adv-x="552" d="M86 494q0 -152 15.5 -278t44 -236.5t68.5 -209t87 -192.5l193 -43q-57 117 -100.5 231.5t-71 232.5t-41 240.5t-13.5 256.5q0 258 66 494.5t170 424.5l-187 41q-109 -203 -170 -435.5t-61 -526.5z" />
<glyph unicode=")" horiz-adv-x="552" d="M49 -426l184 -43q109 203 171.5 436.5t62.5 526.5q0 150 -15.5 276.5t-44 237t-68.5 209t-87 192.5l-193 45q57 -119 99.5 -233.5t70 -231.5t42 -239.5t14.5 -257.5q0 -256 -65.5 -493t-170.5 -425z" />
<glyph unicode="*" horiz-adv-x="851" d="M61 1049l256 -66l-190 -233l156 -72l141 223l164 -252l114 127l-170 207l291 76l-90 149l-244 -102l21 303l-170 -39l16 -264l-276 111z" />
<glyph unicode="+" horiz-adv-x="929" d="M82 487h297v-280h174v280h295v160h-295v281h-174v-281h-297v-160z" />
<glyph unicode="," horiz-adv-x="403" d="M43 -256l72 -12q37 33 73.5 84t67.5 104t50.5 102t19.5 80q0 18 -14.5 40t-35 40.5t-42 30.5t-33.5 12q-14 0 -36 -13t-41.5 -31.5t-33.5 -40t-14 -38.5q0 -12 10 -28.5t25.5 -30.5t33 -25.5t31.5 -13.5q-8 -47 -43 -117.5t-90 -142.5z" />
<glyph unicode="-" horiz-adv-x="675" d="M82 487h512v160h-512v-160z" />
<glyph unicode="." horiz-adv-x="403" d="M76 102q0 -16 13 -36.5t33.5 -41t41 -34t37.5 -13.5q14 0 35.5 13.5t42 34t34 41t13.5 36.5q0 14 -13.5 36t-34 41.5t-42 32.5t-35.5 13q-16 0 -37 -13t-41.5 -32.5t-33.5 -41t-13 -36.5z" />
<glyph unicode="/" horiz-adv-x="1263" d="M37 63l125 -100l1065 1321l-119 98z" />
<glyph unicode="0" horiz-adv-x="1134" d="M82 655q0 -178 41 -307t108.5 -212t155.5 -122t180 -39q90 0 177 39t156 122t111 212t42 307t-42 306.5t-111 211t-156 121.5t-177 39q-92 0 -180 -39t-155.5 -121.5t-108.5 -210.5t-41 -307zM270 655q0 141 26 239.5t66.5 159t95 87t109.5 26.5t108.5 -26.5t95.5 -87 t67.5 -159t25.5 -239.5q0 -143 -25.5 -241.5t-67.5 -158.5t-95 -87t-109 -27q-55 0 -109.5 27t-95 87t-66.5 158.5t-26 241.5z" />
<glyph unicode="1" horiz-adv-x="677" d="M37 1139l270 26v-1165h187v1333l-422 -39z" />
<glyph unicode="2" horiz-adv-x="985" d="M59 0h850v160h-522q55 55 133 145t148.5 195.5t121 216t50.5 205.5q0 100 -32 177t-89 129t-135 78.5t-170 26.5t-170 -25.5t-144 -68.5l39 -164q63 41 128 67.5t147 26.5q100 0 168.5 -59t68.5 -182q0 -80 -45 -179.5t-125 -213t-188.5 -240.5t-233.5 -258v-37z" />
<glyph unicode="3" horiz-adv-x="866" d="M63 205l43 -189q51 -20 102.5 -29.5t100.5 -9.5q115 0 203 31t148.5 86.5t92 130t31.5 162.5q0 86 -25.5 153.5t-65.5 116t-89 78t-98 41.5q31 8 61.5 31.5t55 58.5t40 79t15.5 93q0 66 -26.5 120t-73 93t-109.5 60.5t-139 21.5q-72 0 -131.5 -15t-118.5 -48l33 -158 q59 35 105 47t106 12q72 0 120 -39.5t48 -109.5q0 -37 -18.5 -69.5t-51.5 -60.5t-77 -47.5t-95 -29.5l37 -153q10 2 20 2h17q55 0 105 -20.5t87 -55.5t58.5 -81t21.5 -97q0 -70 -25.5 -121t-67.5 -84t-95.5 -48.5t-106.5 -15.5q-57 0 -118.5 15.5t-119.5 48.5z" />
<glyph unicode="4" horiz-adv-x="1015" d="M27 498l32 -148h523v-350h186v350h154v152h-154v805h-125zM221 502l242 315q29 39 58.5 79t58.5 85l4 -2q-2 -43 -2 -82v-78v-317h-361z" />
<glyph unicode="5" horiz-adv-x="921" d="M100 213l43 -188q39 -20 100.5 -34t137.5 -14q113 0 199 34t143 92.5t87 135t30 160.5q0 100 -35 181.5t-95.5 137.5t-141.5 86t-173 30q-12 0 -26.5 -1.5t-26.5 -3.5l8 318h359l34 160h-571l-20 -672q47 16 100 25.5t125 9.5q55 0 104 -18.5t87 -53.5t60.5 -84 t22.5 -113q0 -61 -22.5 -109t-61.5 -82t-89 -51.5t-107 -17.5q-68 0 -136.5 16.5t-134.5 55.5z" />
<glyph unicode="6" horiz-adv-x="1042" d="M82 451q0 -115 36 -204t97 -148.5t141 -90.5t170 -31q94 0 173 32t137.5 89.5t91.5 135t33 169.5q0 88 -31 165t-86.5 134.5t-132 90t-170.5 32.5q-66 0 -119 -17t-88 -52q72 147 206 280t332 230l-184 86q-131 -68 -242.5 -168.5t-192.5 -220t-126 -250.5t-45 -262z M272 412v39t4 36q29 96 96.5 135.5t155.5 39.5q53 0 98.5 -19.5t77 -55.5t50 -83.5t18.5 -102.5q0 -59 -18.5 -106t-51 -82t-76.5 -53.5t-96 -18.5q-51 0 -97 21.5t-82 58.5t-57.5 86t-21.5 105z" />
<glyph unicode="7" horiz-adv-x="946" d="M63 1147h601l-496 -1147h201l561 1307h-867v-160z" />
<glyph unicode="8" horiz-adv-x="1038" d="M82 362q0 -92 35 -163.5t94 -120.5t138 -76t169 -27q88 0 168 27t140.5 76t95 120.5t34.5 163.5q0 74 -26.5 134.5t-64.5 105.5t-81 75t-75 42q33 14 66.5 39.5t61 61.5t45 82t17.5 99q0 74 -28.5 134.5t-80 104.5t-121 68.5t-151.5 24.5t-151.5 -24.5t-119.5 -68.5 t-79 -104.5t-29 -134.5q0 -53 16.5 -100t44 -84t61.5 -62.5t69 -39.5q-33 -12 -76 -42t-81 -74t-64.5 -103.5t-26.5 -133.5zM258 369q0 51 22.5 92t58.5 72.5t80 54t85 35.5q43 -12 90 -34t85 -54.5t63.5 -73.5t25.5 -92q0 -49 -20.5 -91t-55.5 -73t-82 -48.5t-98 -17.5 t-97 17.5t-81 48.5t-55.5 72.5t-20.5 91.5zM322 997q0 78 58 128.5t140 50.5q86 0 143.5 -50.5t57.5 -128.5q0 -66 -50 -120t-143 -80q-92 25 -149 79t-57 121z" />
<glyph unicode="9" horiz-adv-x="1042" d="M82 907q0 -88 30.5 -164.5t86 -134t132.5 -90.5t171 -33q66 0 119 17.5t88 52.5q-72 -147 -206 -280.5t-333 -229.5l184 -86q131 68 243 168t192.5 220t126 251t45.5 262q0 115 -36 203t-97.5 148.5t-142.5 91t-169 30.5q-94 0 -173 -31.5t-137.5 -89t-91 -135.5 t-32.5 -170zM270 909q0 57 18.5 105.5t51.5 83.5t77 53t95 18t97 -21.5t82 -58t57.5 -86t21.5 -104.5v-39t-4 -37q-29 -96 -96.5 -135t-155.5 -39q-53 0 -98 19.5t-78 55.5t-50.5 83t-17.5 102z" />
<glyph unicode=":" horiz-adv-x="403" d="M76 102q0 -16 13 -36.5t33.5 -41t41 -34t37.5 -13.5q14 0 35.5 13.5t42 34t34 41t13.5 36.5q0 14 -13.5 36t-34 41.5t-42 32.5t-35.5 13q-16 0 -37 -13t-41.5 -32.5t-33.5 -41t-13 -36.5zM76 825q0 -14 13 -35.5t33.5 -41t41 -33t37.5 -13.5q14 0 35.5 13.5t42 33t34 41 t13.5 35.5t-13.5 36t-34 42.5t-42 33.5t-35.5 13q-16 0 -37 -13t-41.5 -33.5t-33.5 -42t-13 -36.5z" />
<glyph unicode=";" horiz-adv-x="403" d="M43 -256l72 -12q37 33 73.5 84t67.5 104t50.5 102t19.5 80q0 18 -14.5 40t-35 40.5t-42 30.5t-33.5 12q-14 0 -36 -13t-41.5 -31.5t-33.5 -40t-14 -38.5q0 -12 10 -28.5t25.5 -30.5t33 -25.5t31.5 -13.5q-8 -47 -43 -117.5t-90 -142.5zM76 825q0 -14 13 -35.5t33.5 -41 t41 -33t37.5 -13.5q14 0 35.5 13.5t42 33t34 41t13.5 35.5t-13.5 36t-34 42.5t-42 33.5t-35.5 13q-16 0 -37 -13t-41.5 -33.5t-33.5 -42t-13 -36.5z" />
<glyph unicode="&#x3c;" horiz-adv-x="733" d="M80 567l369 -368l120 118l-247 250l247 250l-120 119z" />
<glyph unicode="=" horiz-adv-x="929" d="M82 311h766v160h-766v-160zM82 664h766v159h-766v-159z" />
<glyph unicode="&#x3e;" horiz-adv-x="733" d="M164 317l121 -118l368 368l-368 369l-121 -119l248 -250z" />
<glyph unicode="?" horiz-adv-x="802" d="M45 1323l37 -170q49 47 105.5 74.5t136.5 27.5q49 0 87 -17t63.5 -43t38.5 -58.5t13 -63.5q0 -82 -34.5 -141.5t-98.5 -124.5q-61 -66 -95 -154t-34 -180q0 -35 4 -58.5t11 -49.5l153 -35q-4 23 -5 50.5t-1 68.5q0 59 23.5 119.5t80.5 121.5q84 92 137.5 175.5 t53.5 185.5q0 88 -29.5 156.5t-83 115.5t-127 71.5t-159.5 24.5t-158 -25.5t-119 -70.5zM240 102q0 -16 13 -36.5t33.5 -41t41 -34t37.5 -13.5q16 0 37.5 13.5t41 34t32.5 41t13 36.5q0 14 -13 36t-32.5 41.5t-41 32.5t-37.5 13t-37 -13t-41.5 -32.5t-33.5 -41t-13 -36.5z " />
<glyph unicode="@" horiz-adv-x="1568" d="M82 545q0 -129 42 -233.5t114.5 -178.5t172 -115t214.5 -41q82 0 135 16.5t78 35.5l41 161q-41 -35 -100.5 -53t-125.5 -18q-82 0 -156.5 24.5t-133 76.5t-93 132t-34.5 193q0 137 52 257t141 208t207 138t249 50q102 0 186 -30.5t143.5 -85t92 -130t32.5 -164.5 q0 -78 -23.5 -144t-57 -115.5t-73.5 -77t-73 -27.5q-39 0 -39 61q0 14 2 23l70 436q-29 29 -87.5 54.5t-139.5 25.5q-88 0 -173.5 -34t-153 -97.5t-108.5 -151.5t-41 -194q0 -66 20.5 -117t53.5 -85t75 -51.5t85 -17.5q92 0 160.5 37t105.5 105q4 -72 47 -107t96 -35 q98 0 173 48.5t126.5 123t77 163.5t25.5 173q0 113 -41 213.5t-117 176t-184.5 118.5t-245.5 43q-168 0 -316.5 -61.5t-260 -169t-176 -251.5t-64.5 -308zM608 551q0 72 24.5 132t65.5 104t94.5 69t112.5 25q20 0 37 -4.5t27 -8.5l-29 -168q-23 -133 -85 -207.5t-130 -74.5 q-53 0 -85 33.5t-32 99.5z" />
<glyph unicode="A" horiz-adv-x="1267" d="M41 0h195l141 338h508l141 -338h201l-557 1325h-72zM444 496l129 319q14 33 29.5 76t26.5 84h4q12 -41 26.5 -84t28.5 -76l129 -319h-373z" />
<glyph unicode="B" horiz-adv-x="1067" d="M133 0h424q76 0 152.5 23.5t138 72.5t99.5 124t38 177q0 63 -20.5 118.5t-54 101t-78 76t-89.5 42.5q57 25 89 91.5t32 138.5q0 86 -32.5 150.5t-85 106.5t-118 63.5t-130.5 21.5h-365v-1307zM330 168v459h186q51 0 99.5 -14.5t85 -42t59 -72t22.5 -101.5 q0 -59 -22.5 -103t-59 -71.5t-85 -41t-99.5 -13.5h-186zM330 795v344h135q80 0 139.5 -41t59.5 -133q0 -90 -59.5 -130t-139.5 -40h-135z" />
<glyph unicode="C" horiz-adv-x="1228" d="M82 653q0 -168 63.5 -295t165 -212t227.5 -128t248 -43q127 0 204 15.5t138 48.5l41 190q-61 -37 -152 -59.5t-208 -22.5q-98 0 -192.5 32t-169 94.5t-119.5 157.5t-45 222q0 129 46 224.5t120.5 158t169 94t190.5 31.5q51 0 99 -8t91 -20.5t78 -27.5t60 -30l34 172 q-59 35 -154 60.5t-231 25.5q-123 0 -247.5 -43t-226 -128t-166 -212t-64.5 -297z" />
<glyph unicode="D" horiz-adv-x="1323" d="M133 0h402q137 0 264 43t225 126t157.5 204.5t59.5 279.5t-59.5 280t-157.5 205t-225 126t-264 43h-402v-1307zM330 168v971h170q111 0 209 -30t170.5 -89t115.5 -150.5t43 -216.5t-43 -216t-115.5 -151.5t-171 -89t-208.5 -28.5h-170z" />
<glyph unicode="E" horiz-adv-x="952" d="M133 0h776v170h-577v401h424v170h-424v396h506v170h-705v-1307z" />
<glyph unicode="F" horiz-adv-x="884" d="M133 0h199v571h442v170h-442v396h524v170h-723v-1307z" />
<glyph unicode="G" horiz-adv-x="1394" d="M82 653q0 -166 62.5 -293t164 -212t229.5 -129t261 -44q147 0 265 33t212 109v530h-490v-160h301v-272q-96 -68 -276 -68q-100 0 -195.5 31t-169 94.5t-118.5 157.5t-45 221q0 129 46 224.5t120.5 159t169 95t190.5 31.5q104 0 197.5 -28.5t164.5 -75.5l37 172 q-72 47 -179 75.5t-243 28.5q-123 0 -247.5 -43t-226 -128t-166 -212t-64.5 -297z" />
<glyph unicode="H" horiz-adv-x="1337" d="M133 0h199v571h674v-571h198v1307h-198v-566h-674v566h-199v-1307z" />
<glyph unicode="I" horiz-adv-x="526" d="M164 0h198v1307h-198v-1307z" />
<glyph unicode="J" horiz-adv-x="557" d="M-125 -135l129 -131q66 12 135.5 49t126 101.5t92 157.5t35.5 216v1049h-198v-1028q0 -186 -83 -285.5t-237 -128.5z" />
<glyph unicode="K" horiz-adv-x="1114" d="M133 0h199v612l514 -612h244l-555 662l542 645h-229l-516 -617v617h-199v-1307z" />
<glyph unicode="L" horiz-adv-x="917" d="M133 0h774v170h-575v1137h-199v-1307z" />
<glyph unicode="M" horiz-adv-x="1699" d="M113 0h176l51 590q4 59 10 138t10 155h5q35 -72 72.5 -153t72.5 -146l307 -594h74l303 594q33 63 75 148t72 155h5q4 -72 9 -152t11 -145l53 -590h189l-117 1307h-123l-344 -672q-41 -82 -85 -171t-75 -165h-4q-33 76 -78 167t-86 169l-348 672h-123z" />
<glyph unicode="N" horiz-adv-x="1437" d="M133 0h199v655v156t-4 172l4 2q68 -80 147.5 -172t153.5 -172l612 -670h60v1336h-199v-619v-151q0 -80 4 -156l-4 -2q-31 37 -66.5 79t-72.5 83t-72 81t-64 70l-561 615h-137v-1307z" />
<glyph unicode="O" d="M82 655q0 -160 59.5 -285.5t156.5 -212.5t221 -134.5t255 -47.5t255 47.5t221.5 134.5t156.5 212.5t59 285.5q0 158 -59 284t-156.5 213t-221.5 134t-255 47t-255 -47t-221 -134t-156.5 -213t-59.5 -284zM283 655q0 121 43 215.5t112.5 159t157.5 98t178 33.5 q88 0 176 -33.5t159 -98t114 -159t43 -215.5t-43 -216t-114 -159.5t-159 -98.5t-176 -34q-90 0 -178 34t-157.5 98.5t-112.5 160t-43 215.5z" />
<glyph unicode="P" horiz-adv-x="956" d="M133 0h197v573h196q70 0 139.5 22.5t126 68t92.5 115t36 161.5t-36 161.5t-92.5 115t-126 68t-139.5 22.5h-393v-1307zM330 741v398h162q43 0 83.5 -12.5t72.5 -37t50.5 -61.5t18.5 -88t-18.5 -89t-50.5 -62.5t-72.5 -36t-83.5 -11.5h-162z" />
<glyph unicode="Q" d="M82 655q0 -150 52 -269.5t139 -206.5t200 -138t234 -61q53 -25 138 -66t181 -90q88 -47 166 -68.5t178 -21.5q31 0 55 6l125 174q-39 -16 -71.5 -20.5t-67.5 -4.5q-49 0 -109.5 12.5t-134.5 47.5q-61 29 -97 45t-64 22v4q94 27 177 85.5t146.5 140.5t100 185.5 t36.5 223.5q0 158 -59 284t-156.5 213t-221.5 134t-255 47t-255 -47t-221 -134t-156.5 -213t-59.5 -284zM283 655q0 121 43 215.5t112.5 159t157.5 98t178 33.5q88 0 176 -33.5t159 -98t114 -159t43 -215.5t-43 -216t-114 -159.5t-159 -98.5t-176 -34q-90 0 -178 34 t-157.5 98.5t-112.5 160t-43 215.5z" />
<glyph unicode="R" horiz-adv-x="1136" d="M133 0h197v573h184l412 -573h231l-446 604q96 39 162.5 122t66.5 214q0 92 -36 161.5t-92 115t-126 68t-139 22.5h-414v-1307zM330 741v398h182q43 0 84 -12.5t72.5 -37t50 -61.5t18.5 -88t-18.5 -89t-50 -62.5t-72.5 -36t-84 -11.5h-182z" />
<glyph unicode="S" horiz-adv-x="976" d="M63 281l46 -218q51 -35 141 -61.5t196 -26.5q111 0 195 29t141.5 81t86 124t28.5 160q0 82 -27.5 147.5t-78 115.5t-120 89t-155.5 67q-211 72 -211 203q0 72 57.5 125t157.5 53q80 0 149.5 -25.5t104.5 -49.5l39 163q-35 27 -110.5 51.5t-174.5 24.5q-104 0 -182 -29.5 t-129 -79.5t-76.5 -115t-25.5 -132q0 -135 90 -232.5t266 -154.5q119 -39 173 -96.5t54 -143.5q0 -92 -65.5 -147.5t-175.5 -55.5q-106 0 -202.5 34t-191.5 100z" />
<glyph unicode="T" horiz-adv-x="1058" d="M10 1137h420v-1137h199v1137h420v170h-1039v-170z" />
<glyph unicode="U" horiz-adv-x="1331" d="M133 461q0 -115 40 -205t111.5 -152.5t169 -95.5t212.5 -33t212 33t168.5 95.5t111.5 152.5t40 205v846h-192v-826q0 -145 -84 -237t-254 -92t-253 92t-83 237v826h-199v-846z" />
<glyph unicode="V" horiz-adv-x="1142" d="M20 1307l521 -1325h63l518 1325h-188l-242 -623q-29 -72 -55.5 -150.5t-52.5 -160.5h-4q-27 84 -54.5 163.5t-54.5 147.5l-242 623h-209z" />
<glyph unicode="W" horiz-adv-x="1841" d="M31 1307l463 -1325h67l244 698q27 74 54.5 159t58.5 191h4q31 -106 58.5 -190t53.5 -160l244 -698h68l464 1325h-182l-211 -602q-23 -61 -49.5 -141.5t-46.5 -157.5h-4q-23 80 -46.5 157.5t-45.5 141.5l-211 602h-170l-209 -602q-23 -66 -47.5 -143t-46.5 -156h-4 q-20 80 -47 156.5t-50 142.5l-211 602h-198z" />
<glyph unicode="X" horiz-adv-x="1175" d="M51 0h211l217 344q23 37 51.5 84t51.5 88h4q23 -41 49.5 -86t50.5 -86l213 -344h225l-415 674l397 633h-211l-205 -328q-23 -37 -48.5 -80t-45.5 -82h-4q-20 39 -46 83t-48 79l-203 328h-225l399 -645z" />
<glyph unicode="Y" horiz-adv-x="1236" d="M20 1307l500 -705v-602h195v602l502 705h-203l-262 -369q-27 -39 -62 -90t-63 -94h-4q-29 43 -62 93t-61 91l-262 369h-218z" />
<glyph unicode="Z" horiz-adv-x="1040" d="M61 0h926v166h-651l-2 2q47 78 104.5 176t108.5 186l418 730v47h-871v-166h594l2 -2q-47 -76 -105.5 -176.5t-109.5 -188.5l-414 -727v-47z" />
<glyph unicode="[" horiz-adv-x="610" d="M115 -446h434v155h-252v1569h252v156h-434v-1880z" />
<glyph unicode="\" horiz-adv-x="1263" d="M37 1284l1065 -1321l125 100l-1071 1319z" />
<glyph unicode="]" horiz-adv-x="610" d="M74 -291v-155h434v1880h-434v-156h252v-1569h-252z" />
<glyph unicode="^" horiz-adv-x="759" d="M66 1135l116 -111q55 27 102.5 57.5t96.5 79.5q47 -49 95 -79.5t104 -57.5l114 111q-96 41 -175 113.5t-138 158.5q-59 -86 -139 -158.5t-176 -113.5z" />
<glyph unicode="_" horiz-adv-x="1024" d="M-2 -313v-160h1030v160h-1030z" />
<glyph unicode="`" horiz-adv-x="819" d="M193 1200q88 -59 166.5 -90t175.5 -57l102 100q-98 29 -209 83t-195 132z" />
<glyph unicode="a" horiz-adv-x="933" d="M72 262q0 -55 20.5 -107.5t59 -91t94 -62.5t125.5 -24q76 0 143.5 27t116.5 92q16 -43 52 -75.5t83 -43.5l119 119q-45 8 -75 44t-30 100v374q0 82 -26.5 144.5t-73.5 105.5t-112.5 64.5t-143.5 21.5q-86 0 -163 -19.5t-140 -60.5l37 -153q51 35 118.5 54.5t137.5 19.5 q98 0 139 -44.5t41 -107.5v-59l-217 -21q-59 -6 -114.5 -27.5t-97.5 -58.5t-67.5 -90t-25.5 -121zM250 260q0 51 38 96t122 54l184 16v-82q0 -43 -19.5 -82t-51 -66.5t-69.5 -44t-75 -16.5q-55 0 -92 38t-37 87z" />
<glyph unicode="b" horiz-adv-x="1048" d="M123 63q55 -35 136 -60.5t187 -25.5q117 0 215.5 34t168 97.5t108.5 155.5t39 207q0 109 -42 198t-111.5 151.5t-162 96t-190.5 33.5q-59 0 -99 -10t-63 -20v538h-186v-1395zM309 166v579q25 16 67 28.5t95 12.5q57 0 114.5 -21.5t102.5 -62t72.5 -99t27.5 -132.5 q0 -150 -90 -240t-252 -90q-53 0 -82.5 7.5t-54.5 17.5z" />
<glyph unicode="c" horiz-adv-x="937" d="M72 463q0 -115 43 -204t113.5 -152.5t160.5 -96.5t186 -33q139 0 244 48l39 182q-78 -37 -139.5 -51.5t-126.5 -14.5q-63 0 -123.5 22.5t-107 63.5t-74 101.5t-27.5 134.5q0 76 27.5 135t73 101t104.5 64.5t123 22.5q68 0 127 -14t123 -55l34 164q-59 33 -131.5 51 t-165.5 18q-96 0 -186 -32.5t-160.5 -96t-113.5 -153.5t-43 -205z" />
<glyph unicode="d" horiz-adv-x="1101" d="M72 463q0 -121 43 -212t109.5 -151.5t147.5 -91.5t154 -31q96 0 170 25t117 72l6 -74h160v1458h-186v-569q-35 23 -95.5 42t-136.5 19q-104 0 -193 -35.5t-155 -100t-103.5 -155t-37.5 -196.5zM260 463q0 74 23.5 133t64.5 101t96.5 65.5t116.5 23.5q74 0 134.5 -25.5 t97.5 -60.5v-464q-37 -41 -96.5 -68t-135.5 -27q-61 0 -116.5 23.5t-96.5 65.5t-64.5 101.5t-23.5 131.5z" />
<glyph unicode="e" horiz-adv-x="1005" d="M72 463q0 -109 41 -198t109.5 -153.5t158.5 -99.5t188 -35q94 0 160 16.5t115 43.5l47 199q-66 -47 -136.5 -71t-160.5 -24q-82 0 -142.5 27t-101.5 69t-62.5 90t-23.5 91h559l105 104q6 31 6 76q0 63 -26.5 126.5t-78 114t-126 81t-171.5 30.5q-80 0 -162.5 -31.5 t-148 -93t-107.5 -152.5t-42 -210zM276 569q8 49 35 89t64 70t81 46.5t87 16.5q45 0 83 -17.5t64.5 -46.5t40.5 -63.5t14 -69.5q0 -16 -2 -25h-467z" />
<glyph unicode="f" horiz-adv-x="686" d="M20 778h158v-778h187v778h237l31 150h-268v143q0 45 12 89t36.5 77t61.5 53.5t84 20.5q41 0 83 -8.5t77 -24.5l33 158q-72 30 -153 30h-5q-203 0 -309.5 -111.5t-106.5 -340.5v-86h-158v-150z" />
<glyph unicode="g" horiz-adv-x="942" d="M47 -139q0 -72 29.5 -133.5t85 -106.5t133.5 -69.5t174 -24.5q92 0 169 23.5t131 64.5t84 97t30 122q0 129 -69 202t-191 116l-254 88q-16 6 -21.5 16t-5.5 16q0 31 32 41.5t87 10.5q82 0 145.5 25.5t108.5 68.5t68.5 100t23.5 119q0 45 -9.5 82t-23.5 59q23 2 52.5 9.5 t39.5 15.5l-35 153q-25 -12 -60.5 -22t-76.5 -10q-35 0 -65.5 3t-53.5 9t-50 10t-64 4q-78 0 -141.5 -23.5t-109.5 -64.5t-71.5 -99t-25.5 -126q0 -78 35.5 -141.5t101.5 -110.5q-39 -20 -72 -60t-33 -92l95 -94q-37 -12 -72 -37.5t-61.5 -61.5t-43 -82t-16.5 -97zM213 -139 q0 78 53 129t140 51l161 -47q72 -23 108 -64t36 -94q0 -29 -15.5 -56.5t-46.5 -51t-77 -38t-107 -14.5q-63 0 -110.5 15.5t-79 42t-47 59.5t-15.5 68zM283 637q0 63 50 111.5t128 48.5t127 -48.5t49 -111.5q0 -33 -14.5 -62.5t-39 -51t-56 -34t-66.5 -12.5q-78 0 -128 47 t-50 113z" />
<glyph unicode="h" horiz-adv-x="1046" d="M123 0h186v596q0 37 14.5 71.5t42 62.5t69.5 44.5t97 16.5q57 0 98.5 -16.5t68 -44.5t38 -62.5t11.5 -71.5v-596h186v614q0 78 -26.5 140.5t-74 105.5t-112 66.5t-139.5 23.5q-102 0 -162 -24.5t-111 -73.5v606h-186v-1458z" />
<glyph unicode="i" horiz-adv-x="495" d="M135 1219q0 -14 12.5 -34t30 -37.5t36.5 -29.5t34 -12q14 0 33.5 12t38 29.5t30.5 37.5t12 34t-12 33.5t-30.5 38t-38 30.5t-33.5 12t-33.5 -12t-37 -30.5t-30 -38t-12.5 -33.5zM154 0h188v928h-188v-928z" />
<glyph unicode="j" horiz-adv-x="495" d="M-47 -356l119 -117q49 12 98 44t87 81t61.5 111.5t23.5 136.5v1028h-188v-1014q0 -121 -54.5 -185.5t-146.5 -84.5zM133 1219q0 -14 12.5 -34t31 -37.5t37.5 -29.5t34 -12q14 0 33.5 12t37 29.5t29.5 37.5t12 34t-12 33.5t-29.5 38t-37 30.5t-33.5 12t-33.5 -12 t-38 -30.5t-31 -38t-12.5 -33.5z" />
<glyph unicode="k" horiz-adv-x="940" d="M123 0h186v436l387 -436h242l-418 469l406 459h-221l-396 -443v973h-186v-1458z" />
<glyph unicode="l" horiz-adv-x="538" d="M154 219q0 -68 20.5 -114t49 -75.5t60 -45t54.5 -21.5l127 127q-43 8 -84 48t-41 106v1214h-186v-1239z" />
<glyph unicode="m" horiz-adv-x="1601" d="M113 0h186v635q0 63 53.5 108t151.5 45q102 0 153.5 -41.5t51.5 -111.5v-635h186v635q0 63 53 108t152 45q100 0 151.5 -41.5t51.5 -111.5v-635h186v651q0 63 -24.5 118.5t-68.5 95.5t-104.5 62.5t-130.5 22.5q-129 0 -208 -39t-126 -92q-35 53 -104.5 92t-155.5 39 q-109 0 -169 -28.5t-113 -85.5l-9 92h-163v-928z" />
<glyph unicode="n" horiz-adv-x="1036" d="M113 0h186v596q0 37 14.5 71.5t42 62.5t69.5 44.5t97 16.5q57 0 98.5 -16.5t68 -44.5t37.5 -62.5t11 -71.5v-596h187v614q0 78 -27 140.5t-74 105.5t-111.5 66.5t-140.5 23.5q-109 0 -171 -28.5t-115 -85.5l-9 92h-163v-928z" />
<glyph unicode="o" horiz-adv-x="1128" d="M72 463q0 -109 37.5 -198t104.5 -152.5t157 -99.5t194 -36t193.5 36t156 99.5t104.5 152.5t38 198t-38 198t-104.5 153.5t-155.5 100t-194 35.5q-104 0 -194 -35.5t-157 -100t-104.5 -154t-37.5 -197.5zM260 463q0 74 24.5 133t66.5 101t97.5 65.5t116.5 23.5 t115.5 -23.5t96.5 -65.5t66.5 -101t24.5 -133q0 -72 -24.5 -131.5t-66.5 -101.5t-96 -65.5t-116 -23.5q-61 0 -116.5 23.5t-97.5 65.5t-66.5 101.5t-24.5 131.5z" />
<glyph unicode="p" horiz-adv-x="1101" d="M123 -473h186v512q35 -23 95.5 -42.5t136.5 -19.5q104 0 193 36t154.5 100.5t103.5 153.5t38 198q0 121 -43 212t-109.5 151.5t-147.5 91t-155 30.5q-96 0 -169.5 -24.5t-116.5 -71.5l-6 74h-160v-1401zM309 227v465q37 41 96.5 67.5t135.5 26.5q61 0 116.5 -23.5 t96.5 -65.5t64.5 -101t23.5 -131q0 -74 -23.5 -133.5t-64.5 -101.5t-96.5 -65.5t-116.5 -23.5q-74 0 -134.5 26t-97.5 60z" />
<glyph unicode="q" horiz-adv-x="1048" d="M72 471q0 -115 42 -207t111.5 -155.5t161.5 -97.5t191 -34q53 0 93 9.5t68 21.5v-481h187v1419h-45l-82 -47q-43 20 -107.5 35.5t-126.5 15.5q-96 0 -185 -31.5t-157.5 -93t-109.5 -150.5t-41 -204zM260 471q0 72 24.5 130t66.5 99t97.5 63.5t116.5 22.5q57 0 101.5 -13 t72.5 -30v-561q-35 -20 -73.5 -30.5t-87.5 -10.5q-59 0 -117 22.5t-102 64.5t-71.5 103.5t-27.5 139.5z" />
<glyph unicode="r" horiz-adv-x="698" d="M133 0h186v438q0 98 31 165t78 107t106.5 56t114.5 16h19l-35 158q-104 0 -191.5 -36t-124.5 -122l-8 146h-176v-928z" />
<glyph unicode="s" horiz-adv-x="768" d="M55 250l43 -205q41 -29 109.5 -48.5t150.5 -19.5q84 0 147.5 23t105.5 60.5t63.5 88t21.5 105.5q0 121 -75.5 191.5t-214.5 121.5q-70 25 -103 51.5t-33 71.5q0 47 35 76t94 29q76 0 127.5 -18.5t81.5 -41.5l35 156q-27 16 -94.5 37.5t-147.5 21.5q-70 0 -127 -19.5 t-98 -55t-63.5 -85t-22.5 -106.5q0 -113 74 -182.5t213 -120.5q66 -23 99.5 -54.5t33.5 -80.5q0 -47 -41 -79t-107 -32q-86 0 -167.5 33t-139.5 82z" />
<glyph unicode="t" horiz-adv-x="737" d="M18 778h183v-510q0 -70 23.5 -122t64.5 -87.5t96 -54t119 -18.5q57 0 84 8l37 166q-41 -14 -103 -15q-57 0 -97 30t-40 87v516h295l33 150h-328v284l-184 -96v-188h-183v-150z" />
<glyph unicode="u" horiz-adv-x="1036" d="M113 313q0 -78 26.5 -140t73.5 -105t111.5 -67t140.5 -24q109 0 171 28t116 87l8 -92h164v928h-187v-596q0 -37 -14 -72t-42 -62.5t-70 -44t-97 -16.5q-59 0 -99 16.5t-66.5 44t-38 62.5t-11.5 72v596h-186v-615z" />
<glyph unicode="v" horiz-adv-x="954" d="M51 928l387 -944h76l389 944h-174l-166 -410q-18 -45 -38.5 -97t-37.5 -106h-4q-16 53 -36.5 105.5t-38.5 97.5l-168 410h-189z" />
<glyph unicode="w" horiz-adv-x="1452" d="M61 928l351 -944h67l168 450q18 47 38 104.5t38 120.5h4q37 -121 78 -229l168 -446h67l351 944h-168l-146 -393q-16 -43 -32.5 -92.5t-32.5 -102.5h-4q-16 53 -30.5 99t-33.5 96l-147 393h-135l-146 -393q-16 -45 -32.5 -96.5t-32.5 -98.5h-5q-14 47 -30.5 97t-32.5 98 l-145 393h-177z" />
<glyph unicode="x" horiz-adv-x="911" d="M61 0h201l127 213q12 23 29.5 51.5t32.5 57.5h4q14 -29 29.5 -57.5t29.5 -51.5l127 -213h209l-287 477l273 451h-201l-119 -203q-16 -27 -29.5 -51.5t-27.5 -48.5h-4q-14 27 -27.5 51t-28.5 49l-118 203h-207l274 -459z" />
<glyph unicode="y" horiz-adv-x="980" d="M2 -369l113 -114q68 31 131 76t121.5 112.5t113 161.5t107.5 223l342 838h-178l-174 -428q-18 -47 -39 -98.5t-39 -104.5h-4q-20 57 -41 110.5t-39 98.5l-172 422h-193l346 -846q-41 -100 -84 -174t-91 -127t-102 -89t-118 -61z" />
<glyph unicode="z" horiz-adv-x="860" d="M57 0h742v156h-461l-2 2q41 66 75.5 125t69.5 118l281 490v37h-676v-156h393l2 -2q-35 -53 -73.5 -119.5t-71.5 -124.5l-279 -489v-37z" />
<glyph unicode="{" horiz-adv-x="712" d="M41 492q104 -66 145 -177.5t41 -257.5q0 -106 21.5 -198t70 -161t122 -108t177.5 -39l33 144q-127 0 -184 94t-57 274q0 137 -36 243t-122 186q86 84 122 187t36 241q0 180 57 274t184 94l-33 144q-104 0 -177.5 -39t-122 -107.5t-70 -161t-21.5 -196.5q0 -145 -41 -258 t-145 -178z" />
<glyph unicode="|" horiz-adv-x="487" d="M164 -473h160v1931h-160v-1931z" />
<glyph unicode="}" horiz-adv-x="712" d="M61 -305l33 -144q104 0 178 39t122 108t69.5 161t21.5 198q0 145 41.5 257t145.5 178q-104 66 -145.5 178t-41.5 258q0 104 -21.5 196.5t-69.5 161t-121.5 107.5t-178.5 39l-33 -144q127 0 184.5 -94t57.5 -274q0 -137 36 -241t122 -187q-86 -80 -122 -185.5t-36 -243.5 q0 -180 -57.5 -274t-184.5 -94z" />
<glyph unicode="~" horiz-adv-x="819" d="M123 461q119 70 231 86l31 -125q82 6 144.5 29.5t134.5 70.5l36 144q-55 -33 -114.5 -55.5t-116.5 -32.5l-31 129q-82 -6 -144.5 -32t-133.5 -67z" />
<glyph unicode="&#xa1;" horiz-adv-x="546" d="M141 1208q0 -14 13.5 -35.5t34 -41t41 -33t36.5 -13.5q14 0 36 13.5t42.5 33t33.5 41t13 35.5t-13 36t-33.5 42.5t-42 33.5t-36.5 13q-16 0 -36.5 -13t-41 -33.5t-34 -42t-13.5 -36.5zM164 -86h219l-33 1028l-153 35z" />
<glyph unicode="&#xa2;" horiz-adv-x="937" d="M72 827q0 -104 35.5 -188t97 -145.5t140.5 -99.5t165 -48v-178h117v176q104 6 192 45l39 182q-78 -37 -139.5 -51t-126.5 -14q-63 0 -123.5 22.5t-107 63.5t-74 101.5t-27.5 133.5q0 76 27.5 135.5t73 101.5t104.5 64.5t123 22.5q68 0 127 -14.5t123 -55.5l34 164 q-51 29 -111.5 46.5t-133.5 21.5v196h-117v-198q-86 -10 -165 -48t-140.5 -99.5t-97 -146.5t-35.5 -190z" />
<glyph unicode="&#xa3;" horiz-adv-x="856" d="M31 596h157v-80q0 -160 -31.5 -269.5t-84.5 -187.5l139 -73q49 16 123 28.5t160 12.5q164 0 292 -50l23 162q-74 23 -157 33t-152 10q-55 0 -102.5 -4t-80.5 -8q23 43 39.5 126t16.5 204v96h282l13 117h-295v217q0 45 13 89t38 76.5t61.5 53t83.5 20.5q41 0 83 -8t77 -24 l33 157q-74 31 -158 31q-203 0 -309.5 -111.5t-106.5 -341.5v-159h-157v-117z" />
<glyph unicode="&#xa4;" horiz-adv-x="991" d="M76 895l20 -21q21 -20 45.5 -45.5t44.5 -46.5l21 -20q-29 -41 -44.5 -91t-15.5 -104q0 -113 64 -200l-133 -134l82 -83l133 133q43 -29 94 -46.5t109 -17.5q53 0 103 15.5t93 44.5l133 -134l84 82l-133 133q68 90 68 207q0 115 -64 203l129 131l-82 82l-131 -131 q-88 63 -200 63q-117 0 -207 -67l-131 131zM258 567q0 49 18.5 92t50 76t75.5 51.5t94 18.5q49 0 93 -18.5t76.5 -51.5t52 -76t19.5 -92t-19.5 -93t-52 -76.5t-76.5 -51t-93 -18.5t-93.5 18.5t-76 51t-50 76.5t-18.5 93z" />
<glyph unicode="&#xa5;" horiz-adv-x="1236" d="M20 1307l359 -506h-137v-117h223l55 -84v-33h-278v-116h278v-451h195v451h276v116h-276v37l57 80h219v117h-135l361 506h-199l-262 -369q-27 -39 -62 -90t-63 -94h-4q-29 43 -62 93t-61 91l-262 369h-222z" />
<glyph unicode="&#xa6;" horiz-adv-x="487" d="M164 371v-844h160v844h-160zM164 614h160v844h-160v-844z" />
<glyph unicode="&#xa7;" horiz-adv-x="952" d="M121 520l500 -520q29 -29 36 -60.5t7 -48.5q0 -74 -53.5 -126t-157.5 -52q-78 0 -138.5 19.5t-119.5 54.5l-33 -168q53 -33 121.5 -52.5t173.5 -19.5q94 0 166.5 29t122 77t75 110t25.5 128q0 59 -17.5 111.5t-44.5 85.5l62 268l-498 521q-20 23 -31.5 56.5t-11.5 51.5 q0 74 53.5 126t157.5 52q78 0 138.5 -18.5t117.5 -54.5l37 170q-55 31 -124 50t-173 19q-92 0 -165 -28.5t-123 -76.5t-76.5 -110.5t-26.5 -128.5q0 -57 17.5 -110.5t43.5 -86.5zM244 604l28 135l451 -463l-31 -137z" />
<glyph unicode="&#xa8;" horiz-adv-x="819" d="M145 1159q0 -12 12.5 -30.5t29 -35t35 -28.5t30.5 -12q14 0 32.5 12t35 28.5t27.5 35t11 30.5q0 14 -11 32.5t-27.5 35t-35 29t-32.5 12.5q-12 0 -30.5 -12.5t-35 -29t-29 -34.5t-12.5 -33zM459 1159q0 -12 11 -30.5t27.5 -35t35 -28.5t32.5 -12t32.5 12t35 28.5t28 35 t11.5 30.5q0 14 -11.5 32.5t-28 35t-34.5 29t-33 12.5q-14 0 -32.5 -12.5t-35 -29t-27.5 -34.5t-11 -33z" />
<glyph unicode="&#xa9;" horiz-adv-x="1228" d="M72 512q0 -119 42 -217t115.5 -170t172 -112t212.5 -40q115 0 214.5 40t172 112t114.5 170t42 217t-42 218t-114.5 170t-172 111t-214.5 40t-213 -40t-171.5 -111t-115.5 -170t-42 -218zM186 512q0 92 31 171t88 137.5t135 92t174 33.5q94 0 173 -33.5t135.5 -92 t88 -137.5t31.5 -171t-31.5 -172t-88 -138.5t-135 -91t-173.5 -32.5q-96 0 -174 32.5t-135 91t-88 138.5t-31 172zM350 508q0 -68 25.5 -122t68.5 -92t97.5 -58.5t111.5 -20.5q43 0 80 11.5t66 27.5l30 154q-53 -39 -93 -49.5t-77 -10.5q-63 0 -110 42t-47 118 q0 74 47 112.5t110 38.5q41 0 83 -10t77 -33l23 123q-33 25 -79 41.5t-110 16.5q-57 0 -111.5 -20.5t-97.5 -58.5t-68.5 -91.5t-25.5 -118.5z" />
<glyph unicode="&#xaa;" horiz-adv-x="765" d="M72 793q0 -47 17 -90.5t49 -76t78 -52t103 -19.5q59 0 111.5 20.5t93.5 65.5q16 -31 45 -54.5t70 -31.5l111 109q-94 14 -95 106v293q0 68 -22.5 118t-61.5 83.5t-92 51t-117 17.5q-70 0 -134 -15t-117 -50l34 -138q47 31 101.5 46.5t107.5 15.5q74 0 104.5 -32t30.5 -77 v-41l-178 -16q-45 -4 -88 -23.5t-76.5 -50t-54 -71.5t-20.5 -88zM231 780q0 41 27 76t80 41l151 16v-61q0 -39 -15 -69.5t-38.5 -53t-53.5 -35t-56 -12.5q-41 0 -68 29.5t-27 68.5zM281 309q0 -12 12 -30.5t28.5 -35t35 -28.5t30.5 -12q14 0 32.5 12t35 28.5t28 35 t11.5 30.5q0 14 -11.5 32.5t-28 35t-35 29t-32.5 12.5q-12 0 -30.5 -12.5t-35 -29t-28.5 -34.5t-12 -33z" />
<glyph unicode="&#xab;" horiz-adv-x="901" d="M-2 567q102 -72 182 -160t142 -190l106 107q-35 68 -80 126t-104 117q59 59 104 118.5t80 125.5l-106 107q-125 -205 -324 -351zM426 567q102 -72 183 -160t143 -190l106 107q-68 131 -184 243q59 59 104 118.5t80 125.5l-106 107q-123 -203 -326 -351z" />
<glyph unicode="&#xac;" horiz-adv-x="1024" d="M82 487h655v-211h164v371h-819v-160z" />
<glyph unicode="&#xad;" horiz-adv-x="675" d="M82 487h512v160h-512v-160z" />
<glyph unicode="&#xae;" horiz-adv-x="983" d="M72 918q0 -92 31.5 -168t89 -131.5t133 -86t166.5 -30.5q88 0 163.5 30.5t133 86t90 131.5t32.5 168t-32.5 167.5t-90 131t-133 86t-163.5 30.5q-90 0 -166 -30.5t-133.5 -86t-89 -131t-31.5 -167.5zM162 918q0 74 24.5 135t69.5 104t104.5 67.5t131.5 24.5 q70 0 129 -24.5t103 -67.5t68.5 -104t24.5 -135t-24.5 -135.5t-68.5 -104.5t-103.5 -67.5t-128.5 -24.5q-72 0 -131.5 24.5t-104.5 67.5t-69.5 104.5t-24.5 135.5zM334 662h98v200h62l133 -203l82 56l-121 174q33 18 53.5 51t20.5 78q0 37 -14.5 65.5t-38 48t-54.5 31 t-61 11.5h-160v-512zM432 948v139h47q84 1 84 -69t-84 -70h-47z" />
<glyph unicode="&#xaf;" horiz-adv-x="819" d="M221 1075h377v158h-377v-158z" />
<glyph unicode="&#xb0;" horiz-adv-x="509" d="M45 1130q0 -43 16.5 -80.5t46 -66.5t67.5 -45t81 -16t81 16t67.5 45t46 66.5t16.5 80.5t-16.5 81t-46 67t-67.5 45t-81 16t-81 -16t-67.5 -45t-46 -66.5t-16.5 -81.5zM150 1130q0 47 29.5 77t76.5 30t76.5 -30t29.5 -77t-29.5 -76.5t-76.5 -29.5t-76.5 29.5t-29.5 76.5z " />
<glyph unicode="&#xb1;" horiz-adv-x="1812" d="M20 778h158v-778h187v778h458v-778h187v778h174l33 150h-207v80q0 72 20.5 128t56 95t84 59.5t101.5 20.5q55 0 91 -5.5t64 -19.5v-1061q0 -68 20.5 -113.5t49.5 -75.5t60.5 -45.5t54.5 -21.5l127 127q-45 8 -85 48t-40 106v1124q-66 51 -142.5 71.5t-171.5 20.5 q-102 0 -190 -32.5t-151.5 -96t-99.5 -157t-36 -213.5v-39h-458v110q0 45 12 89t36.5 77t61.5 53.5t84 20.5q66 0 120 -17.5t83 -35.5l37 155q-41 23 -93.5 38.5t-125.5 15.5q-190 0 -296 -115t-106 -322v-69h-158v-150z" />
<glyph unicode="&#xb2;" horiz-adv-x="759" d="M68 510h579v111h-311q123 111 195.5 225.5t72.5 210.5q0 125 -77.5 200.5t-233.5 75.5q-66 0 -122 -15t-97 -40l24 -111q43 25 90.5 40.5t104.5 15.5q86 0 133 -42t47 -120q0 -86 -100.5 -216t-304.5 -302v-33z" />
<glyph unicode="&#xb3;" horiz-adv-x="638" d="M70 662l28 -127q29 -18 70 -27.5t82 -9.5q74 0 131 22.5t96 60t58.5 87t19.5 104.5q0 45 -15.5 82t-39 64.5t-53 46t-56.5 26.5q41 18 68.5 58.5t27.5 89.5q0 92 -63.5 143t-167.5 51q-94 0 -172 -41l25 -110q76 41 147 41q41 0 70.5 -22.5t29.5 -61.5q0 -41 -46 -78 t-107 -47l24 -111q10 4 22.5 5t18.5 1q70 0 113 -39t43 -98q0 -76 -53.5 -120t-120.5 -44q-37 0 -86 11.5t-94 42.5z" />
<glyph unicode="&#xb4;" horiz-adv-x="819" d="M180 1153l103 -100q96 27 175 57.5t167 89.5l-39 168q-86 -78 -196.5 -132t-209.5 -83z" />
<glyph unicode="&#xb5;" horiz-adv-x="1126" d="M80 0h967v928h-967v-928zM139 59v680l264 -555q16 -35 44 -68.5t79 -56.5h-387zM201 786h786v-727h-373q-47 27 -76.5 66t-29.5 104q0 53 48 113.5t138 95.5z" />
<glyph unicode="&#xb6;" horiz-adv-x="901" d="M80 942q0 -92 35 -161.5t92 -116t132 -70t155 -23.5h18v-657q0 -121 -54.5 -185.5t-146.5 -84.5l119 -117q49 12 98.5 44t87 81t61 111.5t23.5 136.5v1265h144v152h-348q-82 0 -157 -23.5t-132 -70.5t-92 -118t-35 -163z" />
<glyph unicode="&#xb7;" horiz-adv-x="403" d="M76 555q0 -16 13 -36.5t33.5 -41t41 -34t37.5 -13.5q14 0 35.5 13.5t42 34t34 41t13.5 36.5q0 14 -13.5 35.5t-34 41t-42 33t-35.5 13.5q-16 0 -37 -13.5t-41.5 -33t-33.5 -41t-13 -35.5z" />
<glyph unicode="&#xb8;" horiz-adv-x="819" d="M225 -422q37 -25 75 -38t85 -13q41 0 81 13.5t72.5 40t52 65.5t19.5 92q0 45 -18.5 83t-47 65.5t-64.5 43t-70 15.5l8 55h-78l-33 -176q16 6 33 6h33q41 0 74.5 -26.5t33.5 -71.5q0 -41 -28.5 -67.5t-65.5 -26.5q-39 0 -69.5 8t-69.5 37z" />
<glyph unicode="&#xb9;" horiz-adv-x="550" d="M76 1184l168 16v-690h131v823l-271 -26z" />
<glyph unicode="&#xba;" horiz-adv-x="931" d="M68 944q0 -86 30.5 -157.5t84 -123t127 -80t157.5 -28.5t156.5 28.5t126 80t84 123t30.5 157.5t-30.5 158t-84 123t-126 79.5t-156.5 28.5t-157.5 -28.5t-127 -79.5t-84 -123t-30.5 -158zM231 944q0 57 18.5 103.5t51.5 79t76 51t90 18.5t89 -18.5t75 -51t51 -79 t18 -103.5q0 -55 -18 -102t-51 -80t-75 -51.5t-89 -18.5t-90 18.5t-76 51.5t-51.5 80t-18.5 102zM358 309q0 -12 12.5 -30.5t29 -35t35 -28.5t30.5 -12q14 0 32.5 12t35 28.5t27.5 35t11 30.5q0 14 -11 32.5t-27.5 35t-35 29t-32.5 12.5q-12 0 -30.5 -12.5t-35 -29 t-29 -34.5t-12.5 -33z" />
<glyph unicode="&#xbb;" horiz-adv-x="901" d="M43 324l107 -107q61 102 142 190t183 160q-203 147 -325 351l-107 -107q66 -127 184 -244q-59 -59 -104 -117.5t-80 -125.5zM473 324l107 -107q61 102 142 190t181 160q-201 150 -323 351l-107 -107q35 -66 79 -125t103 -119q-59 -59 -103 -117.5t-79 -125.5z" />
<glyph unicode="&#xbc;" horiz-adv-x="1521" d="M76 1184l168 16v-690h131v823l-271 -26zM137 27l74 -60l1063 1313l-72 59zM795 352l28 -112h344v-240h131v240h109v110h-109v463h-116zM940 350l158 191q23 27 39 50t32 50l5 -2q-6 -49 -7 -96v-193h-227z" />
<glyph unicode="&#xbd;" horiz-adv-x="1634" d="M76 1184l168 16v-690h131v823l-271 -26zM137 27l74 -60l1063 1313l-72 59zM958 0h580v111h-311q123 111 195.5 225.5t72.5 210.5q0 125 -78 200.5t-233 75.5q-66 0 -122 -15t-97 -40l24 -111q43 25 90 40.5t105 15.5q86 0 133 -42t47 -120q0 -86 -100.5 -216t-305.5 -302 v-33z" />
<glyph unicode="&#xbe;" horiz-adv-x="1576" d="M70 662l28 -127q29 -18 70 -27.5t82 -9.5q74 0 131 22.5t96 60t58.5 87t19.5 104.5q0 45 -15.5 82t-39 64.5t-53 46t-56.5 26.5q41 18 68.5 58.5t27.5 89.5q0 92 -63.5 143t-167.5 51q-94 0 -172 -41l25 -110q76 41 147 41q41 0 70.5 -22.5t29.5 -61.5q0 -41 -46 -78 t-107 -47l24 -111q10 4 22.5 5t18.5 1q70 0 113 -39t43 -98q0 -76 -53.5 -120t-120.5 -44q-37 0 -86 11.5t-94 42.5zM219 27l74 -60l1063 1313l-72 59zM877 352l28 -112h344v-240h131v240h109v110h-109v463h-116zM1022 350l158 191q23 27 39 50t32 50l4 -2q-6 -49 -6 -96 v-193h-227z" />
<glyph unicode="&#xbf;" horiz-adv-x="802" d="M82 260q0 -88 29.5 -156.5t83 -115.5t127 -72t159.5 -25t158 26t119 71l-37 170q-49 -47 -105.5 -75t-136.5 -28q-49 0 -87 17.5t-63.5 43t-39 58.5t-13.5 64q0 82 35 141t99 125q61 66 95 153.5t34 180.5q0 35 -4.5 58.5t-10.5 49.5l-153 35q4 -23 5 -50.5t1 -68.5 q0 -59 -23.5 -119.5t-81.5 -121.5q-84 -92 -137 -175.5t-53 -185.5zM313 1208q0 -14 13.5 -35.5t33 -41t41 -33t37.5 -13.5q14 0 36 13.5t42.5 33t33.5 41t13 35.5t-13 36t-33.5 42.5t-42 33.5t-36.5 13q-16 0 -37.5 -13t-41 -33.5t-33 -42t-13.5 -36.5z" />
<glyph unicode="&#xc0;" horiz-adv-x="1267" d="M41 0h195l141 338h508l141 -338h201l-557 1325h-72zM340 1610q88 -59 166.5 -90t175.5 -57l102 100q-98 29 -209 83t-195 132zM444 496l129 319q14 33 29.5 76t26.5 84h4q12 -41 26.5 -84t28.5 -76l129 -319h-373z" />
<glyph unicode="&#xc1;" horiz-adv-x="1267" d="M41 0h195l141 338h508l141 -338h201l-557 1325h-72zM444 496l129 319q14 33 29.5 76t26.5 84h4q12 -41 26.5 -84t28.5 -76l129 -319h-373zM475 1563l103 -100q96 27 175 57.5t167 89.5l-39 168q-86 -78 -196.5 -132t-209.5 -83z" />
<glyph unicode="&#xc2;" horiz-adv-x="1267" d="M41 0h195l141 338h508l141 -338h201l-557 1325h-72zM366 1559l99 -96q49 23 90 49t82 69q41 -43 80.5 -69.5t89.5 -48.5l98 96q-82 35 -149.5 96.5t-118.5 134.5q-53 -74 -121 -135t-150 -96zM444 496l129 319q14 33 29.5 76t26.5 84h4q12 -41 26.5 -84t28.5 -76 l129 -319h-373z" />
<glyph unicode="&#xc3;" horiz-adv-x="1267" d="M41 0h195l141 338h508l141 -338h201l-557 1325h-72zM344 1502q119 70 231 86l31 -125q82 6 144.5 29.5t134.5 70.5l36 143q-55 -33 -114.5 -55t-116.5 -33l-31 129q-82 -6 -144.5 -31.5t-133.5 -66.5zM444 496l129 319q14 33 29.5 76t26.5 84h4q12 -41 26.5 -84t28.5 -76 l129 -319h-373z" />
<glyph unicode="&#xc4;" horiz-adv-x="1267" d="M41 0h195l141 338h508l141 -338h201l-557 1325h-72zM374 1569q0 -12 12.5 -30.5t29 -35t35 -28.5t30.5 -12q14 0 32.5 12t35 28.5t27.5 35t11 30.5q0 14 -11 32.5t-27.5 35t-35 29t-32.5 12.5q-12 0 -30.5 -12.5t-35 -29t-29 -34.5t-12.5 -33zM444 496l129 319 q14 33 29.5 76t26.5 84h4q12 -41 26.5 -84t28.5 -76l129 -319h-373zM688 1569q0 -12 11 -30.5t27.5 -35t35 -28.5t32.5 -12t32.5 12t35 28.5t28 35t11.5 30.5q0 14 -11.5 32.5t-28 35t-34.5 29t-33 12.5q-14 0 -32.5 -12.5t-35 -29t-27.5 -34.5t-11 -33z" />
<glyph unicode="&#xc5;" horiz-adv-x="1267" d="M41 0h195l141 338h508l141 -338h201l-557 1325h-72zM401 1674q0 -47 18.5 -89t50 -74t74.5 -50.5t91 -18.5q47 0 90 18.5t74.5 50.5t50 74t18.5 89t-18.5 89t-50 73.5t-74.5 50t-90 18.5t-90.5 -18.5t-75 -50t-50 -73.5t-18.5 -89zM444 496l129 319q14 33 29.5 76 t26.5 84h4q12 -41 26.5 -84t28.5 -76l129 -319h-373zM516 1674q0 53 32.5 85.5t86.5 32.5q53 0 85.5 -32.5t32.5 -85.5t-32.5 -86t-85.5 -33t-86 32.5t-33 86.5z" />
<glyph unicode="&#xc6;" horiz-adv-x="1667" d="M20 0h199l197 338h434v-338h774v170h-577v401h423v170h-423v396h505v170h-774zM498 496l241 424q29 51 57.5 108t51.5 113l4 -2q0 -61 -1 -104.5t-1 -110.5v-428h-352z" />
<glyph unicode="&#xc7;" horiz-adv-x="1228" d="M82 653q0 -154 54 -273.5t142.5 -203.5t200 -133t226.5 -63l-29 -156q16 6 33 6h32q41 0 75 -26.5t34 -71.5q0 -41 -28.5 -67.5t-65.5 -26.5q-39 0 -70 8t-70 37l-22 -105q37 -25 75 -38t85 -13q41 0 80.5 13.5t72.5 40t52.5 65.5t19.5 92q0 45 -18.5 83t-47 65.5 t-64.5 43t-71 15.5l4 30q127 0 206 15.5t140 48.5l41 190q-61 -37 -152 -59.5t-208 -22.5q-98 0 -192.5 32t-169 94.5t-119.5 157.5t-45 222q0 129 46 224.5t120.5 158t169 94t190.5 31.5q51 0 99 -8t91 -20.5t78 -27.5t60 -30l34 172q-59 35 -154 60.5t-231 25.5 q-123 0 -247.5 -43t-226 -128t-166 -212t-64.5 -297z" />
<glyph unicode="&#xc8;" horiz-adv-x="952" d="M133 0h776v170h-577v401h424v170h-424v396h506v170h-705v-1307zM211 1610q88 -59 166.5 -90t175.5 -57l102 100q-98 29 -209 83t-195 132z" />
<glyph unicode="&#xc9;" horiz-adv-x="952" d="M133 0h776v170h-577v401h424v170h-424v396h506v170h-705v-1307zM350 1563l103 -100q96 27 175 57.5t167 89.5l-39 168q-86 -78 -196.5 -132t-209.5 -83z" />
<glyph unicode="&#xca;" horiz-adv-x="952" d="M133 0h776v170h-577v401h424v170h-424v396h506v170h-705v-1307zM245 1559l99 -96q49 23 90 49t82 69q41 -43 80.5 -69.5t89.5 -48.5l98 96q-82 35 -149.5 96.5t-118.5 134.5q-53 -74 -121 -135t-150 -96z" />
<glyph unicode="&#xcb;" horiz-adv-x="952" d="M133 0h776v170h-577v401h424v170h-424v396h506v170h-705v-1307zM243 1569q0 -12 12.5 -30.5t29 -35t35 -28.5t30.5 -12q14 0 32.5 12t35 28.5t27.5 35t11 30.5q0 14 -11 32.5t-27.5 35t-35 29t-32.5 12.5q-12 0 -30.5 -12.5t-35 -29t-29 -34.5t-12.5 -33zM557 1569 q0 -12 11 -30.5t27.5 -35t35 -28.5t32.5 -12t32.5 12t35 28.5t28 35t11.5 30.5q0 14 -11.5 32.5t-28 35t-34.5 29t-33 12.5q-14 0 -32.5 -12.5t-35 -29t-27.5 -34.5t-11 -33z" />
<glyph unicode="&#xcc;" horiz-adv-x="526" d="M3 1610q88 -59 166.5 -90t175.5 -57l102 100q-98 29 -209 83t-195 132zM164 0h198v1307h-198v-1307z" />
<glyph unicode="&#xcd;" horiz-adv-x="526" d="M84 1563l103 -100q96 27 175 57.5t167 89.5l-39 168q-86 -78 -196.5 -132t-209.5 -83zM164 0h198v1307h-198v-1307z" />
<glyph unicode="&#xce;" horiz-adv-x="526" d="M-4 1559l99 -96q49 23 90 49t82 69q41 -43 80.5 -69.5t89.5 -48.5l98 96q-82 35 -149.5 96.5t-118.5 134.5q-53 -74 -121 -135t-150 -96zM164 0h198v1307h-198v-1307z" />
<glyph unicode="&#xcf;" horiz-adv-x="526" d="M4 1569q0 -12 12.5 -30.5t29 -35t35 -28.5t30.5 -12q14 0 32.5 12t35 28.5t27.5 35t11 30.5q0 14 -11 32.5t-27.5 35t-35 29t-32.5 12.5q-12 0 -30.5 -12.5t-35 -29t-29 -34.5t-12.5 -33zM164 0h198v1307h-198v-1307zM318 1569q0 -12 11 -30.5t27.5 -35t35 -28.5 t32.5 -12t32.5 12t35 28.5t28 35t11.5 30.5q0 14 -11.5 32.5t-28 35t-34.5 29t-33 12.5q-14 0 -32.5 -12.5t-35 -29t-27.5 -34.5t-11 -33z" />
<glyph unicode="&#xd0;" horiz-adv-x="1343" d="M-6 592h160v-592h401q137 0 264 43t225.5 126t158 204.5t59.5 279.5t-59.5 280t-158 205t-225.5 126t-264 43h-401v-566h-160v-149zM350 168v424h228l30 149h-258v398h170q111 0 209 -30t171 -89t116 -150.5t43 -216.5t-43 -216t-116 -151.5t-171 -89t-209 -28.5h-170z " />
<glyph unicode="&#xd1;" horiz-adv-x="1437" d="M133 0h199v655v156t-4 172l4 2q68 -80 147.5 -172t153.5 -172l612 -670h60v1336h-199v-619v-151q0 -80 4 -156l-4 -2q-31 37 -66.5 79t-72.5 83t-72 81t-64 70l-561 615h-137v-1307zM428 1502q119 70 231 86l31 -125q82 6 144.5 29.5t134.5 70.5l36 143 q-55 -33 -114.5 -55t-116.5 -33l-31 129q-82 -6 -144.5 -31.5t-133.5 -66.5z" />
<glyph unicode="&#xd2;" d="M82 655q0 -160 59.5 -285.5t156.5 -212.5t221 -134.5t255 -47.5t255 47.5t221.5 134.5t156.5 212.5t59 285.5q0 158 -59 284t-156.5 213t-221.5 134t-255 47t-255 -47t-221 -134t-156.5 -213t-59.5 -284zM283 655q0 121 43 215.5t112.5 159t157.5 98t178 33.5 q88 0 176 -33.5t159 -98t114 -159t43 -215.5t-43 -216t-114 -159.5t-159 -98.5t-176 -34q-90 0 -178 34t-157.5 98.5t-112.5 160t-43 215.5zM465 1610q88 -59 166.5 -90t175.5 -57l102 100q-98 29 -209 83t-195 132z" />
<glyph unicode="&#xd3;" d="M82 655q0 -160 59.5 -285.5t156.5 -212.5t221 -134.5t255 -47.5t255 47.5t221.5 134.5t156.5 212.5t59 285.5q0 158 -59 284t-156.5 213t-221.5 134t-255 47t-255 -47t-221 -134t-156.5 -213t-59.5 -284zM283 655q0 121 43 215.5t112.5 159t157.5 98t178 33.5 q88 0 176 -33.5t159 -98t114 -159t43 -215.5t-43 -216t-114 -159.5t-159 -98.5t-176 -34q-90 0 -178 34t-157.5 98.5t-112.5 160t-43 215.5zM608 1563l103 -100q96 27 175 57.5t167 89.5l-39 168q-86 -78 -196.5 -132t-209.5 -83z" />
<glyph unicode="&#xd4;" d="M82 655q0 -160 59.5 -285.5t156.5 -212.5t221 -134.5t255 -47.5t255 47.5t221.5 134.5t156.5 212.5t59 285.5q0 158 -59 284t-156.5 213t-221.5 134t-255 47t-255 -47t-221 -134t-156.5 -213t-59.5 -284zM283 655q0 121 43 215.5t112.5 159t157.5 98t178 33.5 q88 0 176 -33.5t159 -98t114 -159t43 -215.5t-43 -216t-114 -159.5t-159 -98.5t-176 -34q-90 0 -178 34t-157.5 98.5t-112.5 160t-43 215.5zM508 1559l99 -96q49 23 90 49t82 69q41 -43 80.5 -69.5t89.5 -48.5l98 96q-82 35 -149.5 96.5t-118.5 134.5q-53 -74 -121 -135 t-150 -96z" />
<glyph unicode="&#xd5;" d="M82 655q0 -160 59.5 -285.5t156.5 -212.5t221 -134.5t255 -47.5t255 47.5t221.5 134.5t156.5 212.5t59 285.5q0 158 -59 284t-156.5 213t-221.5 134t-255 47t-255 -47t-221 -134t-156.5 -213t-59.5 -284zM283 655q0 121 43 215.5t112.5 159t157.5 98t178 33.5 q88 0 176 -33.5t159 -98t114 -159t43 -215.5t-43 -216t-114 -159.5t-159 -98.5t-176 -34q-90 0 -178 34t-157.5 98.5t-112.5 160t-43 215.5zM475 1502q119 70 231 86l31 -125q82 6 144.5 29.5t134.5 70.5l36 143q-55 -33 -114.5 -55t-116.5 -33l-31 129q-82 -6 -144.5 -31.5 t-133.5 -66.5z" />
<glyph unicode="&#xd6;" d="M82 655q0 -160 59.5 -285.5t156.5 -212.5t221 -134.5t255 -47.5t255 47.5t221.5 134.5t156.5 212.5t59 285.5q0 158 -59 284t-156.5 213t-221.5 134t-255 47t-255 -47t-221 -134t-156.5 -213t-59.5 -284zM283 655q0 121 43 215.5t112.5 159t157.5 98t178 33.5 q88 0 176 -33.5t159 -98t114 -159t43 -215.5t-43 -216t-114 -159.5t-159 -98.5t-176 -34q-90 0 -178 34t-157.5 98.5t-112.5 160t-43 215.5zM514 1569q0 -12 12.5 -30.5t29 -35t35 -28.5t30.5 -12q14 0 32.5 12t35 28.5t27.5 35t11 30.5q0 14 -11 32.5t-27.5 35t-35 29 t-32.5 12.5q-12 0 -30.5 -12.5t-35 -29t-29 -34.5t-12.5 -33zM828 1569q0 -12 11 -30.5t27.5 -35t35 -28.5t32.5 -12t32.5 12t35 28.5t28 35t11.5 30.5q0 14 -11.5 32.5t-28 35t-34.5 29t-33 12.5q-14 0 -32.5 -12.5t-35 -29t-27.5 -34.5t-11 -33z" />
<glyph unicode="&#xd7;" horiz-adv-x="958" d="M152 313l88 -88l243 244l244 -242l86 86l-244 244l242 242l-86 86l-242 -242l-241 244l-88 -88l241 -242z" />
<glyph unicode="&#xd8;" d="M82 655q0 -160 58.5 -285.5t156.5 -213.5l-117 -146l90 -76l121 152q176 -111 383 -111q131 0 255 47.5t221.5 134.5t156.5 212.5t59 285.5t-58 283t-157 213l119 145l-90 76l-121 -151q-86 55 -184 83.5t-201 28.5q-131 0 -255 -47t-221 -134t-156.5 -213t-59.5 -284z M283 655q0 121 43 215.5t112.5 159t157.5 98t178 33.5q143 0 270 -82l-628 -776q-61 66 -97 153t-36 199zM506 227l629 779q59 -66 95 -153t36 -198q0 -121 -43 -216t-114 -159.5t-159 -98.5t-176 -34q-141 0 -268 80z" />
<glyph unicode="&#xd9;" horiz-adv-x="1331" d="M133 461q0 -115 40 -205t111.5 -152.5t169 -95.5t212.5 -33t212 33t168.5 95.5t111.5 152.5t40 205v846h-192v-826q0 -145 -84 -237t-254 -92t-253 92t-83 237v826h-199v-846zM357 1610q88 -59 166.5 -90t175.5 -57l102 100q-98 29 -209 83t-195 132z" />
<glyph unicode="&#xda;" horiz-adv-x="1331" d="M133 461q0 -115 40 -205t111.5 -152.5t169 -95.5t212.5 -33t212 33t168.5 95.5t111.5 152.5t40 205v846h-192v-826q0 -145 -84 -237t-254 -92t-253 92t-83 237v826h-199v-846zM528 1563l103 -100q96 27 175 57.5t167 89.5l-39 168q-86 -78 -196.5 -132t-209.5 -83z" />
<glyph unicode="&#xdb;" horiz-adv-x="1331" d="M133 461q0 -115 40 -205t111.5 -152.5t169 -95.5t212.5 -33t212 33t168.5 95.5t111.5 152.5t40 205v846h-192v-826q0 -145 -84 -237t-254 -92t-253 92t-83 237v826h-199v-846zM395 1559l99 -96q49 23 90 49t82 69q41 -43 80.5 -69.5t89.5 -48.5l98 96q-82 35 -149.5 96.5 t-118.5 134.5q-53 -74 -121 -135t-150 -96z" />
<glyph unicode="&#xdc;" horiz-adv-x="1331" d="M133 461q0 -115 40 -205t111.5 -152.5t169 -95.5t212.5 -33t212 33t168.5 95.5t111.5 152.5t40 205v846h-192v-826q0 -145 -84 -237t-254 -92t-253 92t-83 237v826h-199v-846zM407 1569q0 -12 12.5 -30.5t29 -35t35 -28.5t30.5 -12q14 0 32.5 12t35 28.5t27.5 35t11 30.5 q0 14 -11 32.5t-27.5 35t-35 29t-32.5 12.5q-12 0 -30.5 -12.5t-35 -29t-29 -34.5t-12.5 -33zM721 1569q0 -12 11 -30.5t27.5 -35t35 -28.5t32.5 -12t32.5 12t35 28.5t28 35t11.5 30.5q0 14 -11.5 32.5t-28 35t-34.5 29t-33 12.5q-14 0 -32.5 -12.5t-35 -29t-27.5 -34.5 t-11 -33z" />
<glyph unicode="&#xdd;" horiz-adv-x="1236" d="M20 1307l500 -705v-602h195v602l502 705h-203l-262 -369q-27 -39 -62 -90t-63 -94h-4q-29 43 -62 93t-61 91l-262 369h-218zM452 1563l103 -100q96 27 175 57.5t167 89.5l-39 168q-86 -78 -196.5 -132t-209.5 -83z" />
<glyph unicode="&#xde;" horiz-adv-x="956" d="M133 0h197v422h196q70 0 139.5 22.5t126 67.5t92.5 114.5t36 161.5t-36 162t-92.5 115t-126 67.5t-139.5 22.5h-196v152h-197v-1307zM330 590v397h162q43 0 83.5 -12t72.5 -37t50.5 -62t18.5 -88t-18.5 -88.5t-50.5 -62.5t-72.5 -36t-83.5 -11h-162z" />
<glyph unicode="&#xdf;" horiz-adv-x="1095" d="M133 0h186v1034q0 55 13.5 105.5t39 88.5t63.5 60.5t87 22.5t88 -21.5t65.5 -56.5t40 -78t13.5 -88q0 -31 -5 -60.5t-11 -56.5q-61 0 -115.5 -19.5t-94.5 -55t-62.5 -85t-22.5 -106.5q0 -113 73.5 -182.5t213.5 -120.5q66 -23 99.5 -54.5t33.5 -80.5q0 -47 -41 -79 t-107 -32q-86 0 -153.5 26.5t-118.5 63.5v-178q41 -29 113.5 -49.5t154.5 -20.5q84 0 147.5 23t105.5 60.5t63.5 88t21.5 105.5q0 121 -76 191.5t-215 121.5q-70 25 -102.5 51.5t-32.5 71.5q0 66 73.5 95.5t205.5 29.5q12 41 23 103.5t11 119.5q0 111 -30.5 191t-84 133 t-124 78.5t-150.5 25.5t-151.5 -26.5t-123.5 -85t-83 -149.5t-31 -220v-985z" />
<glyph unicode="&#xe0;" horiz-adv-x="933" d="M72 262q0 -55 20.5 -107.5t59 -91t94 -62.5t125.5 -24q76 0 143.5 27t116.5 92q16 -43 52 -75.5t83 -43.5l119 119q-45 8 -75 44t-30 100v374q0 82 -26.5 144.5t-73.5 105.5t-112.5 64.5t-143.5 21.5q-86 0 -163 -19.5t-140 -60.5l37 -153q51 35 118.5 54.5t137.5 19.5 q98 0 139 -44.5t41 -107.5v-59l-217 -21q-59 -6 -114.5 -27.5t-97.5 -58.5t-67.5 -90t-25.5 -121zM168 1208q76 -51 141.5 -77.5t149.5 -47.5l86 84q-82 25 -176.5 71t-165.5 114zM250 260q0 51 38 96t122 54l184 16v-82q0 -43 -19.5 -82t-51 -66.5t-69.5 -44t-75 -16.5 q-55 0 -92 38t-37 87z" />
<glyph unicode="&#xe1;" horiz-adv-x="933" d="M72 262q0 -55 20.5 -107.5t59 -91t94 -62.5t125.5 -24q76 0 143.5 27t116.5 92q16 -43 52 -75.5t83 -43.5l119 119q-45 8 -75 44t-30 100v374q0 82 -26.5 144.5t-73.5 105.5t-112.5 64.5t-143.5 21.5q-86 0 -163 -19.5t-140 -60.5l37 -153q51 35 118.5 54.5t137.5 19.5 q98 0 139 -44.5t41 -107.5v-59l-217 -21q-59 -6 -114.5 -27.5t-97.5 -58.5t-67.5 -90t-25.5 -121zM250 260q0 51 38 96t122 54l184 16v-82q0 -43 -19.5 -82t-51 -66.5t-69.5 -44t-75 -16.5q-55 0 -92 38t-37 87zM268 1167l86 -84q84 23 150.5 48.5t140.5 76.5l-33 144 q-72 -68 -167 -114t-177 -71z" />
<glyph unicode="&#xe2;" horiz-adv-x="933" d="M72 262q0 -55 20.5 -107.5t59 -91t94 -62.5t125.5 -24q76 0 143.5 27t116.5 92q16 -43 52 -75.5t83 -43.5l119 119q-45 8 -75 44t-30 100v374q0 82 -26.5 144.5t-73.5 105.5t-112.5 64.5t-143.5 21.5q-86 0 -163 -19.5t-140 -60.5l37 -153q51 35 118.5 54.5t137.5 19.5 q98 0 139 -44.5t41 -107.5v-59l-217 -21q-59 -6 -114.5 -27.5t-97.5 -58.5t-67.5 -90t-25.5 -121zM197 1165l84 -82q41 20 75.5 42t69.5 59q35 -37 68.5 -58.5t76.5 -42.5l82 82q-70 29 -127 81t-100 116q-45 -63 -102.5 -115.5t-126.5 -81.5zM250 260q0 51 38 96t122 54 l184 16v-82q0 -43 -19.5 -82t-51 -66.5t-69.5 -44t-75 -16.5q-55 0 -92 38t-37 87z" />
<glyph unicode="&#xe3;" horiz-adv-x="933" d="M72 262q0 -55 20.5 -107.5t59 -91t94 -62.5t125.5 -24q76 0 143.5 27t116.5 92q16 -43 52 -75.5t83 -43.5l119 119q-45 8 -75 44t-30 100v374q0 82 -26.5 144.5t-73.5 105.5t-112.5 64.5t-143.5 21.5q-86 0 -163 -19.5t-140 -60.5l37 -153q51 35 118.5 54.5t137.5 19.5 q98 0 139 -44.5t41 -107.5v-59l-217 -21q-59 -6 -114.5 -27.5t-97.5 -58.5t-67.5 -90t-25.5 -121zM203 1116q47 29 98 47.5t98 26.5l27 -107q70 4 123 24.5t113 61.5l32 121q-98 -57 -196 -76l-27 111q-70 -4 -123 -26.5t-115 -57.5zM250 260q0 51 38 96t122 54l184 16v-82 q0 -43 -19.5 -82t-51 -66.5t-69.5 -44t-75 -16.5q-55 0 -92 38t-37 87z" />
<glyph unicode="&#xe4;" horiz-adv-x="933" d="M72 262q0 -55 20.5 -107.5t59 -91t94 -62.5t125.5 -24q76 0 143.5 27t116.5 92q16 -43 52 -75.5t83 -43.5l119 119q-45 8 -75 44t-30 100v374q0 82 -26.5 144.5t-73.5 105.5t-112.5 64.5t-143.5 21.5q-86 0 -163 -19.5t-140 -60.5l37 -153q51 35 118.5 54.5t137.5 19.5 q98 0 139 -44.5t41 -107.5v-59l-217 -21q-59 -6 -114.5 -27.5t-97.5 -58.5t-67.5 -90t-25.5 -121zM209 1174q0 -10 10 -25.5t24.5 -30t31 -25t26.5 -10.5q12 0 27.5 10.5t29 25t23.5 30t10 25.5q0 12 -10 27.5t-23.5 29.5t-29 24.5t-27.5 10.5q-10 0 -26.5 -10.5t-31 -24.5 t-24.5 -29.5t-10 -27.5zM250 260q0 51 38 96t122 54l184 16v-82q0 -43 -19.5 -82t-51 -66.5t-69.5 -44t-75 -16.5q-55 0 -92 38t-37 87zM475 1174q0 -10 10.5 -25.5t23.5 -30t29.5 -25t28.5 -10.5t27.5 10.5t29 25t23.5 30t10 25.5q0 12 -10 27.5t-23.5 29.5t-28.5 24.5 t-28 10.5q-12 0 -28.5 -10.5t-29.5 -24.5t-23.5 -29.5t-10.5 -27.5z" />
<glyph unicode="&#xe5;" horiz-adv-x="933" d="M72 262q0 -55 20.5 -107.5t59 -91t94 -62.5t125.5 -24q76 0 143.5 27t116.5 92q16 -43 52 -75.5t83 -43.5l119 119q-45 8 -75 44t-30 100v374q0 82 -26.5 144.5t-73.5 105.5t-112.5 64.5t-143.5 21.5q-86 0 -163 -19.5t-140 -60.5l37 -153q51 35 118.5 54.5t137.5 19.5 q98 0 139 -44.5t41 -107.5v-59l-217 -21q-59 -6 -114.5 -27.5t-97.5 -58.5t-67.5 -90t-25.5 -121zM229 1262q0 -41 15.5 -76t43 -62.5t63.5 -43t77 -15.5t77 15.5t63.5 43t43 62.5t15.5 76t-15.5 76.5t-43 62t-63.5 42t-77 15.5t-77 -15.5t-63.5 -42t-43 -62t-15.5 -76.5z M250 260q0 51 38 96t122 54l184 16v-82q0 -43 -19.5 -82t-51 -66.5t-69.5 -44t-75 -16.5q-55 0 -92 38t-37 87zM328 1262q0 45 27.5 73.5t72.5 28.5t72.5 -28.5t27.5 -73.5q0 -43 -27.5 -72t-72.5 -29t-72.5 29t-27.5 72z" />
<glyph unicode="&#xe6;" horiz-adv-x="1527" d="M72 254q0 -55 20.5 -105.5t59 -88t95 -60.5t130.5 -23q94 0 181 41t149 132q72 -82 171 -127.5t214 -45.5q94 0 159.5 16.5t114.5 43.5l47 199q-66 -47 -136.5 -71t-160.5 -24q-82 0 -142.5 27t-100 69t-61 90t-24.5 91h558l104 104q6 31 6 76q0 63 -26.5 126.5t-78 114 t-126 81t-170.5 30.5q-86 0 -173 -35.5t-155 -105.5q-47 72 -126 106.5t-177 34.5q-86 0 -163 -19.5t-140 -60.5l37 -153q51 35 118.5 54.5t137.5 19.5q98 0 139 -44.5t41 -107.5v-74l-211 -20q-66 -6 -123 -25.5t-99 -55.5t-65.5 -88t-23.5 -122zM250 250q0 59 38 98 t128 47l178 17v-68q0 -43 -19.5 -82t-51 -66.5t-69.5 -44t-75 -16.5q-55 0 -92 34t-37 81zM801 569q8 49 33.5 89t62.5 70t81 46.5t87 16.5q45 0 83 -17.5t64.5 -46.5t41 -63.5t14.5 -69.5q0 -16 -2 -25h-465z" />
<glyph unicode="&#xe7;" horiz-adv-x="937" d="M72 463q0 -102 34.5 -185t93 -143.5t136.5 -99.5t162 -51l-27 -134q16 4 29 5h28q35 0 64 -22.5t29 -59.5q0 -35 -25 -57.5t-55 -22.5q-35 0 -60.5 7t-58.5 30l-21 -88q33 -23 65 -33t73 -10q35 0 68.5 11t61 33.5t44 55.5t16.5 78q0 39 -15.5 70.5t-40 55t-54 37 t-60.5 13.5l4 24q25 0 57.5 2.5t67.5 7.5t69 14t62 24l39 182q-78 -37 -139.5 -51.5t-126.5 -14.5q-63 0 -123.5 22.5t-107 63.5t-74 101.5t-27.5 134.5q0 76 27.5 135t73 101t104.5 64.5t123 22.5q68 0 127 -14t123 -55l34 164q-59 33 -131.5 51t-165.5 18 q-96 0 -186 -32.5t-160.5 -96t-113.5 -153.5t-43 -205z" />
<glyph unicode="&#xe8;" horiz-adv-x="1005" d="M72 463q0 -109 41 -198t109.5 -153.5t158.5 -99.5t188 -35q94 0 160 16.5t115 43.5l47 199q-66 -47 -136.5 -71t-160.5 -24q-82 0 -142.5 27t-101.5 69t-62.5 90t-23.5 91h559l105 104q6 31 6 76q0 63 -26.5 126.5t-78 114t-126 81t-171.5 30.5q-80 0 -162.5 -31.5 t-148 -93t-107.5 -152.5t-42 -210zM276 569q8 49 35 89t64 70t81 46.5t87 16.5q45 0 83 -17.5t64.5 -46.5t40.5 -63.5t14 -69.5q0 -16 -2 -25h-467zM303 1208q76 -51 141.5 -77.5t149.5 -47.5l86 84q-82 25 -176 71t-166 114z" />
<glyph unicode="&#xe9;" horiz-adv-x="1005" d="M72 463q0 -109 41 -198t109.5 -153.5t158.5 -99.5t188 -35q94 0 160 16.5t115 43.5l47 199q-66 -47 -136.5 -71t-160.5 -24q-82 0 -142.5 27t-101.5 69t-62.5 90t-23.5 91h559l105 104q6 31 6 76q0 63 -26.5 126.5t-78 114t-126 81t-171.5 30.5q-80 0 -162.5 -31.5 t-148 -93t-107.5 -152.5t-42 -210zM276 569q8 49 35 89t64 70t81 46.5t87 16.5q45 0 83 -17.5t64.5 -46.5t40.5 -63.5t14 -69.5q0 -16 -2 -25h-467zM395 1167l86 -84q84 23 150.5 48.5t140.5 76.5l-33 144q-72 -68 -167 -114t-177 -71z" />
<glyph unicode="&#xea;" horiz-adv-x="1005" d="M72 463q0 -109 41 -198t109.5 -153.5t158.5 -99.5t188 -35q94 0 160 16.5t115 43.5l47 199q-66 -47 -136.5 -71t-160.5 -24q-82 0 -142.5 27t-101.5 69t-62.5 90t-23.5 91h559l105 104q6 31 6 76q0 63 -26.5 126.5t-78 114t-126 81t-171.5 30.5q-80 0 -162.5 -31.5 t-148 -93t-107.5 -152.5t-42 -210zM276 569q8 49 35 89t64 70t81 46.5t87 16.5q45 0 83 -17.5t64.5 -46.5t40.5 -63.5t14 -69.5q0 -16 -2 -25h-467zM311 1165l84 -82q41 20 76 42t70 59q35 -37 68.5 -58.5t76.5 -42.5l82 82q-70 29 -127 81t-100 116q-45 -63 -102.5 -115.5 t-127.5 -81.5z" />
<glyph unicode="&#xeb;" horiz-adv-x="1005" d="M72 463q0 -109 41 -198t109.5 -153.5t158.5 -99.5t188 -35q94 0 160 16.5t115 43.5l47 199q-66 -47 -136.5 -71t-160.5 -24q-82 0 -142.5 27t-101.5 69t-62.5 90t-23.5 91h559l105 104q6 31 6 76q0 63 -26.5 126.5t-78 114t-126 81t-171.5 30.5q-80 0 -162.5 -31.5 t-148 -93t-107.5 -152.5t-42 -210zM276 569q8 49 35 89t64 70t81 46.5t87 16.5q45 0 83 -17.5t64.5 -46.5t40.5 -63.5t14 -69.5q0 -16 -2 -25h-467zM311 1174q0 -10 10.5 -25.5t24.5 -30t30.5 -25t26.5 -10.5q12 0 27.5 10.5t29 25t24 30t10.5 25.5q0 12 -10.5 27.5 t-24 29.5t-28.5 24.5t-28 10.5q-10 0 -26.5 -10.5t-30.5 -24.5t-24.5 -29.5t-10.5 -27.5zM578 1174q0 -10 10 -25.5t23.5 -30t29.5 -25t29 -10.5q12 0 27.5 10.5t28.5 25t23.5 30t10.5 25.5q0 12 -10.5 27.5t-23.5 29.5t-28.5 24.5t-27.5 10.5t-28.5 -10.5t-30 -24.5 t-23.5 -29.5t-10 -27.5z" />
<glyph unicode="&#xec;" horiz-adv-x="495" d="M0 1208q76 -51 141.5 -77.5t149.5 -47.5l86 84q-82 25 -176.5 71t-165.5 114zM154 0h188v928h-188v-928z" />
<glyph unicode="&#xed;" horiz-adv-x="495" d="M119 1167l86 -84q84 23 150.5 48.5t140.5 76.5l-33 144q-72 -68 -167 -114t-177 -71zM154 0h188v928h-188v-928z" />
<glyph unicode="&#xee;" horiz-adv-x="495" d="M20 1165l84 -82q41 20 76 42t70 59q35 -37 68.5 -58.5t76.5 -42.5l82 82q-70 29 -127 81t-100 116q-45 -63 -102.5 -115.5t-127.5 -81.5zM154 0h188v928h-188v-928z" />
<glyph unicode="&#xef;" horiz-adv-x="495" d="M23 1174q0 -10 10 -25.5t24.5 -30t30.5 -25t27 -10.5q12 0 27.5 10.5t28.5 25t23.5 30t10.5 25.5q0 12 -10.5 27.5t-23.5 29.5t-28.5 24.5t-27.5 10.5q-10 0 -26.5 -10.5t-31 -24.5t-24.5 -29.5t-10 -27.5zM154 0h188v928h-188v-928zM289 1174q0 -10 10 -25.5t23.5 -30 t30 -25t28.5 -10.5t27.5 10.5t29 25t23.5 30t10 25.5q0 12 -10 27.5t-23.5 29.5t-29 24.5t-27.5 10.5t-28.5 -10.5t-30 -24.5t-23.5 -29.5t-10 -27.5z" />
<glyph unicode="&#xf0;" horiz-adv-x="1021" d="M72 401q0 -90 32.5 -167.5t91 -135t138.5 -89.5t174 -32q88 0 167 30t137 88.5t93 141t35 191.5q0 39 -10 88t-23 78l-243 580l153 63l-55 139l-158 -63l-59 145h-195l88 -211l-170 -69l56 -140l174 70l98 -236q-47 -8 -102.5 -20t-104.5 -29q-68 -23 -126 -62.5 t-100 -95t-66.5 -122t-24.5 -142.5zM258 401q0 102 56.5 173t160.5 106q43 14 93 24.5t87 14.5q12 -29 29.5 -68t33 -81t26 -79.5t10.5 -64.5q0 -66 -19.5 -118t-53.5 -89t-80 -57.5t-97 -20.5q-53 0 -97.5 19.5t-78 54.5t-52 82t-18.5 104z" />
<glyph unicode="&#xf1;" horiz-adv-x="1036" d="M113 0h186v596q0 37 14.5 71.5t42 62.5t69.5 44.5t97 16.5q57 0 98.5 -16.5t68 -44.5t37.5 -62.5t11 -71.5v-596h187v614q0 78 -27 140.5t-74 105.5t-111.5 66.5t-140.5 23.5q-109 0 -171 -28.5t-115 -85.5l-9 92h-163v-928zM266 1116q47 29 98.5 47.5t98.5 26.5l26 -107 q70 4 123.5 24.5t112.5 61.5l33 121q-98 -57 -197 -76l-26 111q-70 -4 -123.5 -26.5t-114.5 -57.5z" />
<glyph unicode="&#xf2;" horiz-adv-x="1128" d="M72 463q0 -109 37.5 -198t104.5 -152.5t157 -99.5t194 -36t193.5 36t156 99.5t104.5 152.5t38 198t-38 198t-104.5 153.5t-155.5 100t-194 35.5q-104 0 -194 -35.5t-157 -100t-104.5 -154t-37.5 -197.5zM260 463q0 74 24.5 133t66.5 101t97.5 65.5t116.5 23.5 t115.5 -23.5t96.5 -65.5t66.5 -101t24.5 -133q0 -72 -24.5 -131.5t-66.5 -101.5t-96 -65.5t-116 -23.5q-61 0 -116.5 23.5t-97.5 65.5t-66.5 101.5t-24.5 131.5zM313 1208q76 -51 141.5 -77.5t149.5 -47.5l86 84q-82 25 -176 71t-166 114z" />
<glyph unicode="&#xf3;" horiz-adv-x="1128" d="M72 463q0 -109 37.5 -198t104.5 -152.5t157 -99.5t194 -36t193.5 36t156 99.5t104.5 152.5t38 198t-38 198t-104.5 153.5t-155.5 100t-194 35.5q-104 0 -194 -35.5t-157 -100t-104.5 -154t-37.5 -197.5zM260 463q0 74 24.5 133t66.5 101t97.5 65.5t116.5 23.5 t115.5 -23.5t96.5 -65.5t66.5 -101t24.5 -133q0 -72 -24.5 -131.5t-66.5 -101.5t-96 -65.5t-116 -23.5q-61 0 -116.5 23.5t-97.5 65.5t-66.5 101.5t-24.5 131.5zM457 1167l86 -84q84 23 150.5 48.5t140.5 76.5l-33 144q-72 -68 -167 -114t-177 -71z" />
<glyph unicode="&#xf4;" horiz-adv-x="1128" d="M72 463q0 -109 37.5 -198t104.5 -152.5t157 -99.5t194 -36t193.5 36t156 99.5t104.5 152.5t38 198t-38 198t-104.5 153.5t-155.5 100t-194 35.5q-104 0 -194 -35.5t-157 -100t-104.5 -154t-37.5 -197.5zM260 463q0 74 24.5 133t66.5 101t97.5 65.5t116.5 23.5 t115.5 -23.5t96.5 -65.5t66.5 -101t24.5 -133q0 -72 -24.5 -131.5t-66.5 -101.5t-96 -65.5t-116 -23.5q-61 0 -116.5 23.5t-97.5 65.5t-66.5 101.5t-24.5 131.5zM332 1165l84 -82q41 20 75.5 42t69.5 59q35 -37 69 -58.5t77 -42.5l81 82q-70 29 -127 81t-100 116 q-45 -63 -102.5 -115.5t-126.5 -81.5z" />
<glyph unicode="&#xf5;" horiz-adv-x="1128" d="M72 463q0 -109 37.5 -198t104.5 -152.5t157 -99.5t194 -36t193.5 36t156 99.5t104.5 152.5t38 198t-38 198t-104.5 153.5t-155.5 100t-194 35.5q-104 0 -194 -35.5t-157 -100t-104.5 -154t-37.5 -197.5zM260 463q0 74 24.5 133t66.5 101t97.5 65.5t116.5 23.5 t115.5 -23.5t96.5 -65.5t66.5 -101t24.5 -133q0 -72 -24.5 -131.5t-66.5 -101.5t-96 -65.5t-116 -23.5q-61 0 -116.5 23.5t-97.5 65.5t-66.5 101.5t-24.5 131.5zM319 1116q47 29 98.5 47.5t98.5 26.5l27 -107q70 4 123 24.5t112 61.5l33 121q-98 -57 -197 -76l-26 111 q-70 -4 -123 -26.5t-115 -57.5z" />
<glyph unicode="&#xf6;" horiz-adv-x="1128" d="M72 463q0 -109 37.5 -198t104.5 -152.5t157 -99.5t194 -36t193.5 36t156 99.5t104.5 152.5t38 198t-38 198t-104.5 153.5t-155.5 100t-194 35.5q-104 0 -194 -35.5t-157 -100t-104.5 -154t-37.5 -197.5zM260 463q0 74 24.5 133t66.5 101t97.5 65.5t116.5 23.5 t115.5 -23.5t96.5 -65.5t66.5 -101t24.5 -133q0 -72 -24.5 -131.5t-66.5 -101.5t-96 -65.5t-116 -23.5q-61 0 -116.5 23.5t-97.5 65.5t-66.5 101.5t-24.5 131.5zM344 1174q0 -10 10.5 -25.5t24.5 -30t30.5 -25t26.5 -10.5q12 0 27.5 10.5t29 25t23.5 30t10 25.5 q0 12 -10 27.5t-23.5 29.5t-28.5 24.5t-28 10.5q-10 0 -26.5 -10.5t-30.5 -24.5t-24.5 -29.5t-10.5 -27.5zM610 1174q0 -10 10.5 -25.5t23.5 -30t29.5 -25t28.5 -10.5t27.5 10.5t29 25t24 30t10.5 25.5q0 12 -10.5 27.5t-24 29.5t-28.5 24.5t-28 10.5q-12 0 -28.5 -10.5 t-29.5 -24.5t-23.5 -29.5t-10.5 -27.5z" />
<glyph unicode="&#xf7;" horiz-adv-x="929" d="M82 487h766v160h-766v-160zM356 311q0 -14 11.5 -32.5t29 -36t36 -28.5t32.5 -11t32.5 11t35 28.5t28.5 36t12 32.5q0 12 -12 30.5t-28.5 36t-35 29t-32.5 11.5t-32.5 -11.5t-36 -29t-29 -35.5t-11.5 -31zM356 825q0 -14 11.5 -32.5t29 -36t36 -28.5t32.5 -11t32.5 11 t35 28.5t28.5 36t12 32.5q0 12 -12 30.5t-28.5 36t-35 29t-32.5 11.5t-32.5 -11.5t-36 -29t-29 -35.5t-11.5 -31z" />
<glyph unicode="&#xf8;" horiz-adv-x="1116" d="M72 463q0 -109 36.5 -196t102.5 -152l-88 -109l86 -72l92 115q115 -72 264 -72q104 0 193.5 36t156 99.5t104.5 152.5t38 198q0 111 -39 200t-105 152l86 107l-86 71l-90 -110q-55 33 -120.5 50t-137.5 17q-104 0 -194 -35.5t-157 -100t-104.5 -154t-37.5 -197.5z M260 463q0 74 24.5 133t66.5 101t97.5 65.5t116.5 23.5q41 0 79 -11.5t71 -29.5l-389 -487q-31 41 -48.5 93t-17.5 112zM408 184l393 490q31 -41 49 -93t18 -118q0 -72 -24.5 -131.5t-66.5 -101.5t-96 -65.5t-116 -23.5q-43 0 -83 11.5t-74 31.5z" />
<glyph unicode="&#xf9;" horiz-adv-x="1036" d="M113 313q0 -78 26.5 -140t73.5 -105t111.5 -67t140.5 -24q109 0 171 28t116 87l8 -92h164v928h-187v-596q0 -37 -14 -72t-42 -62.5t-70 -44t-97 -16.5q-59 0 -99 16.5t-66.5 44t-38 62.5t-11.5 72v596h-186v-615zM254 1208q76 -51 141.5 -77.5t149.5 -47.5l86 84 q-82 25 -176.5 71t-165.5 114z" />
<glyph unicode="&#xfa;" horiz-adv-x="1036" d="M113 313q0 -78 26.5 -140t73.5 -105t111.5 -67t140.5 -24q109 0 171 28t116 87l8 -92h164v928h-187v-596q0 -37 -14 -72t-42 -62.5t-70 -44t-97 -16.5q-59 0 -99 16.5t-66.5 44t-38 62.5t-11.5 72v596h-186v-615zM424 1167l86 -84q84 23 150.5 48.5t140.5 76.5l-33 144 q-72 -68 -167 -114t-177 -71z" />
<glyph unicode="&#xfb;" horiz-adv-x="1036" d="M113 313q0 -78 26.5 -140t73.5 -105t111.5 -67t140.5 -24q109 0 171 28t116 87l8 -92h164v928h-187v-596q0 -37 -14 -72t-42 -62.5t-70 -44t-97 -16.5q-59 0 -99 16.5t-66.5 44t-38 62.5t-11.5 72v596h-186v-615zM295 1165l84 -82q41 20 75.5 42t69.5 59q35 -37 69 -58.5 t77 -42.5l82 82q-70 29 -127.5 81t-100.5 116q-45 -63 -102 -115.5t-127 -81.5z" />
<glyph unicode="&#xfc;" horiz-adv-x="1036" d="M113 313q0 -78 26.5 -140t73.5 -105t111.5 -67t140.5 -24q109 0 171 28t116 87l8 -92h164v928h-187v-596q0 -37 -14 -72t-42 -62.5t-70 -44t-97 -16.5q-59 0 -99 16.5t-66.5 44t-38 62.5t-11.5 72v596h-186v-615zM299 1174q0 -10 10 -25.5t24.5 -30t31 -25t26.5 -10.5 q12 0 27.5 10.5t29 25t23.5 30t10 25.5q0 12 -10 27.5t-23.5 29.5t-29 24.5t-27.5 10.5q-10 0 -26.5 -10.5t-31 -24.5t-24.5 -29.5t-10 -27.5zM565 1174q0 -10 10.5 -25.5t23.5 -30t29.5 -25t28.5 -10.5t27.5 10.5t29 25t24 30t10.5 25.5q0 12 -10.5 27.5t-24 29.5 t-28.5 24.5t-28 10.5q-12 0 -28.5 -10.5t-29.5 -24.5t-23.5 -29.5t-10.5 -27.5z" />
<glyph unicode="&#xfd;" horiz-adv-x="980" d="M2 -369l113 -114q68 31 131 76t121.5 112.5t113 161.5t107.5 223l342 838h-178l-174 -428q-18 -47 -39 -98.5t-39 -104.5h-4q-20 57 -41 110.5t-39 98.5l-172 422h-193l346 -846q-41 -100 -84 -174t-91 -127t-102 -89t-118 -61zM383 1167l86 -84q84 23 150.5 48.5 t140.5 76.5l-33 144q-72 -68 -167 -114t-177 -71z" />
<glyph unicode="&#xfe;" horiz-adv-x="1101" d="M123 -473h186v512q35 -23 95.5 -42.5t136.5 -19.5q104 0 193 36t154.5 100.5t103.5 153.5t38 198q0 121 -43 212t-109.5 151.5t-147.5 91t-155 30.5q-86 0 -153.5 -20.5t-112.5 -57.5v586h-186v-1931zM309 227v465q37 41 96.5 67.5t135.5 26.5q61 0 116.5 -23.5 t96.5 -65.5t64.5 -101t23.5 -131q0 -74 -23.5 -133.5t-64.5 -101.5t-96.5 -65.5t-116.5 -23.5q-74 0 -134.5 26t-97.5 60z" />
<glyph unicode="&#xff;" horiz-adv-x="980" d="M2 -369l113 -114q68 31 131 76t121.5 112.5t113 161.5t107.5 223l342 838h-178l-174 -428q-18 -47 -39 -98.5t-39 -104.5h-4q-20 57 -41 110.5t-39 98.5l-172 422h-193l346 -846q-41 -100 -84 -174t-91 -127t-102 -89t-118 -61zM272 1167q0 -10 10.5 -25.5t25 -29.5 t29.5 -24.5t25 -10.5q12 0 28 10.5t30 24.5t23.5 29.5t9.5 25.5q0 12 -9.5 27.5t-23.5 30t-29.5 25t-28.5 10.5q-10 0 -25 -10.5t-29.5 -25t-25 -29.5t-10.5 -28zM539 1167q0 -10 10 -25.5t23.5 -29.5t28.5 -24.5t28 -10.5q12 0 27.5 10.5t29.5 24.5t23.5 29.5t9.5 25.5 q0 12 -9.5 27.5t-23.5 30t-29.5 25t-27.5 10.5t-27.5 -10.5t-29 -25t-23.5 -29.5t-10 -28z" />
<glyph unicode="&#x152;" horiz-adv-x="1951" d="M82 655q0 -160 59.5 -285.5t156.5 -212.5t221 -134.5t255 -47.5q96 0 187.5 25t173.5 72v-72h774v170h-578v401h424v170h-424v396h506v170h-702v-70q-82 47 -173.5 71.5t-187.5 24.5q-131 0 -255 -47t-221 -134t-156.5 -213t-59.5 -284zM283 655q0 121 43 215.5 t112.5 159t157.5 98t178 33.5q98 0 193.5 -38t167.5 -103v-731q-72 -66 -167.5 -104t-193.5 -38q-90 0 -178 34t-157.5 98.5t-112.5 160t-43 215.5z" />
<glyph unicode="&#x153;" horiz-adv-x="1800" d="M72 463q0 -109 37.5 -198t104.5 -152.5t157 -99.5t194 -36q125 0 229.5 50.5t170.5 142.5q70 -92 173 -142.5t226 -50.5q94 0 159.5 16.5t114.5 43.5l48 199q-66 -47 -136.5 -71t-160.5 -24q-82 0 -142.5 27t-100.5 69t-61.5 90t-23.5 91h557l104 104q7 31 7 76 q0 63 -27 126.5t-78 114t-126 81t-171 30.5q-98 0 -197.5 -47t-168.5 -139q-66 88 -169.5 137t-226.5 49q-104 0 -194 -35.5t-157 -100t-104.5 -154t-37.5 -197.5zM260 463q0 74 24.5 133t66.5 101t97.5 65.5t116.5 23.5t115.5 -23.5t96.5 -65.5t66.5 -101t24.5 -133 q0 -72 -24.5 -131.5t-66.5 -101.5t-96 -65.5t-116 -23.5q-61 0 -116.5 23.5t-97.5 65.5t-66.5 101.5t-24.5 131.5zM1073 569q8 49 34 89t62.5 70t80.5 46.5t87 16.5q45 0 83 -17.5t64.5 -46.5t41 -63.5t14.5 -69.5q0 -16 -2 -25h-465z" />
<glyph unicode="&#x178;" horiz-adv-x="1236" d="M20 1307l500 -705v-602h195v602l502 705h-203l-262 -369q-27 -39 -62 -90t-63 -94h-4q-29 43 -62 93t-61 91l-262 369h-218zM354 1569q0 -12 12.5 -30.5t29 -35t35 -28.5t30.5 -12q14 0 32.5 12t35 28.5t27.5 35t11 30.5q0 14 -11 32.5t-27.5 35t-35 29t-32.5 12.5 q-12 0 -30.5 -12.5t-35 -29t-29 -34.5t-12.5 -33zM668 1569q0 -12 11 -30.5t27.5 -35t35 -28.5t32.5 -12t32.5 12t35 28.5t28 35t11.5 30.5q0 14 -11.5 32.5t-28 35t-34.5 29t-33 12.5q-14 0 -32.5 -12.5t-35 -29t-27.5 -34.5t-11 -33z" />
<glyph unicode="&#x2c6;" horiz-adv-x="819" d="M139 1149l99 -96q49 23 90 49t82 69q41 -43 80.5 -69.5t89.5 -48.5l98 96q-82 35 -149.5 96.5t-118.5 134.5q-53 -74 -121 -135t-150 -96z" />
<glyph unicode="&#x2dc;" horiz-adv-x="819" d="M123 1092q119 70 231 86l31 -125q82 6 144.5 29.5t134.5 70.5l36 143q-55 -33 -114.5 -55t-116.5 -33l-31 129q-82 -6 -144.5 -31.5t-133.5 -66.5z" />
<glyph unicode="&#x2000;" horiz-adv-x="952" />
<glyph unicode="&#x2001;" horiz-adv-x="1905" />
<glyph unicode="&#x2002;" horiz-adv-x="952" />
<glyph unicode="&#x2003;" horiz-adv-x="1905" />
<glyph unicode="&#x2004;" horiz-adv-x="635" />
<glyph unicode="&#x2005;" horiz-adv-x="476" />
<glyph unicode="&#x2006;" horiz-adv-x="317" />
<glyph unicode="&#x2007;" horiz-adv-x="317" />
<glyph unicode="&#x2008;" horiz-adv-x="238" />
<glyph unicode="&#x2009;" horiz-adv-x="381" />
<glyph unicode="&#x200a;" horiz-adv-x="105" />
<glyph unicode="&#x2010;" horiz-adv-x="675" d="M82 487h512v160h-512v-160z" />
<glyph unicode="&#x2011;" horiz-adv-x="675" d="M82 487h512v160h-512v-160z" />
<glyph unicode="&#x2012;" horiz-adv-x="675" d="M82 487h512v160h-512v-160z" />
<glyph unicode="&#x2013;" horiz-adv-x="1187" d="M82 487h1024v160h-1024v-160z" />
<glyph unicode="&#x2014;" horiz-adv-x="1699" d="M82 487h1536v160h-1536v-160z" />
<glyph unicode="&#x2018;" horiz-adv-x="403" d="M78 1087q0 -18 14 -39.5t34.5 -40t42 -30.5t34.5 -12q14 0 34.5 13t41 31.5t35 40t14.5 37.5q0 12 -11.5 29t-27 31t-32.5 25.5t-30 13.5q6 47 41 117.5t90 142.5l-71 12q-37 -35 -74 -85t-66.5 -103t-49 -102.5t-19.5 -80.5z" />
<glyph unicode="&#x2019;" horiz-adv-x="403" d="M43 987l72 -12q37 33 73.5 84t67.5 104.5t50.5 102.5t19.5 80q0 18 -14.5 39.5t-35 40t-42 30.5t-33.5 12q-14 0 -36 -13t-41.5 -31.5t-33.5 -40t-14 -37.5q0 -12 10 -29t25.5 -31t33 -25.5t31.5 -13.5q-8 -47 -43 -117.5t-90 -142.5z" />
<glyph unicode="&#x201a;" horiz-adv-x="403" d="M43 -256l72 -12q37 33 73.5 84t67.5 104t50.5 102t19.5 80q0 18 -14.5 40t-35 40.5t-42 30.5t-33.5 12q-14 0 -36 -13t-41.5 -31.5t-33.5 -40t-14 -38.5q0 -12 10 -28.5t25.5 -30.5t33 -25.5t31.5 -13.5q-8 -47 -43 -117.5t-90 -142.5z" />
<glyph unicode="&#x201c;" horiz-adv-x="753" d="M78 1087q0 -18 14 -39.5t34.5 -40t42 -30.5t34.5 -12q14 0 34.5 13t41 31.5t35 40t14.5 37.5q0 12 -11.5 29t-27 32t-32.5 25.5t-30 12.5q6 47 41 117.5t90 142.5l-71 12q-37 -35 -74 -85t-66.5 -103t-49 -102.5t-19.5 -80.5zM430 1090q0 -18 14.5 -40t35 -41.5t42 -31.5 t33.5 -12q14 0 34.5 13t41 31.5t35 40t14.5 40.5q0 12 -11.5 27.5t-26.5 30.5t-32.5 26.5t-29.5 13.5q6 47 41 116.5t92 141.5l-74 14q-37 -35 -74 -85t-66.5 -103t-49 -102.5t-19.5 -79.5z" />
<glyph unicode="&#x201d;" horiz-adv-x="755" d="M43 987l72 -12q37 33 73.5 84t67.5 104.5t50.5 102.5t19.5 80q0 18 -15.5 39.5t-35 40t-41 30.5t-33.5 12q-14 0 -36 -13t-41.5 -31.5t-33.5 -40t-14 -37.5q0 -12 10 -29t25.5 -31t33 -25.5t31.5 -13.5q-8 -47 -43 -117.5t-90 -142.5zM395 989l72 -14q37 33 74 84 t67.5 104.5t50 102.5t19.5 80q0 18 -15.5 39.5t-35 40t-41 30.5t-33.5 12q-14 0 -35.5 -13t-41 -31.5t-34 -40t-14.5 -37.5q0 -12 10.5 -27.5t25.5 -31t32.5 -27t31.5 -13.5q-8 -47 -42.5 -116.5t-90.5 -141.5z" />
<glyph unicode="&#x201e;" horiz-adv-x="724" d="M31 -256l71 -12q37 33 74 84t67.5 104t50 102t19.5 80q0 18 -15 40t-34.5 40.5t-41 30.5t-34.5 12q-14 0 -35.5 -13t-41 -31.5t-34 -40t-14.5 -38.5q0 -12 10.5 -28.5t26 -30.5t33 -25.5t31.5 -13.5q-8 -47 -43 -117.5t-90 -142.5zM383 -254l72 -14q37 33 73.5 84 t67.5 104t50.5 102t19.5 80q0 18 -15.5 40t-35 40.5t-41 30.5t-33.5 12q-14 0 -36 -13t-41.5 -31.5t-33.5 -40t-14 -38.5q0 -12 10 -27.5t25.5 -30.5t33 -26.5t31.5 -13.5q-8 -47 -43 -116.5t-90 -141.5z" />
<glyph unicode="&#x2022;" horiz-adv-x="808" d="M102 567q0 -66 24 -121t64.5 -94t96 -60.5t119.5 -21.5q63 0 118.5 21.5t95 60.5t63.5 94t24 121q0 68 -24 122t-63.5 94t-95 61.5t-118.5 21.5t-119 -21.5t-96.5 -61.5t-64.5 -94t-24 -122z" />
<glyph unicode="&#x2026;" horiz-adv-x="1124" d="M76 102q0 -16 13 -36.5t33.5 -41t41 -34t37.5 -13.5q14 0 35.5 13.5t42 34t34 41t13.5 36.5q0 14 -13.5 36t-34 41.5t-42 32.5t-35.5 13q-16 0 -37 -13t-41.5 -32.5t-33.5 -41t-13 -36.5zM436 102q0 -16 13.5 -36.5t33 -41t41 -34t37.5 -13.5q14 0 35.5 13.5t42 34t34 41 t13.5 36.5q0 14 -13.5 36t-34 41.5t-42 32.5t-35.5 13q-16 0 -37.5 -13t-41 -32.5t-33 -41t-13.5 -36.5zM797 102q0 -16 13 -36.5t33.5 -41t41 -34t37.5 -13.5q16 0 37.5 13.5t42 34t34 41t13.5 36.5q0 14 -13.5 36t-34 41.5t-42 32.5t-37.5 13t-37 -13t-41.5 -32.5 t-33.5 -41t-13 -36.5z" />
<glyph unicode="&#x202f;" horiz-adv-x="381" />
<glyph unicode="&#x2039;" horiz-adv-x="473" d="M-2 567q102 -72 183 -160t143 -190l106 107q-35 68 -81 126t-105 117q117 115 186 244l-106 107q-123 -203 -326 -351z" />
<glyph unicode="&#x203a;" horiz-adv-x="473" d="M43 324l107 -107q61 102 142 190t183 160q-203 147 -325 351l-107 -107q66 -127 184 -244q-59 -59 -104 -117.5t-80 -125.5z" />
<glyph unicode="&#x205f;" horiz-adv-x="476" />
<glyph unicode="&#x2122;" horiz-adv-x="851" d="M41 1241h109v-313h71v313h109v66h-289v-66zM354 928h70l16 213l111 -213h27l114 217l19 -217h71l-30 379h-52l-131 -263l-135 263h-49z" />
<glyph unicode="&#x25fc;" horiz-adv-x="931" d="M0 0v932h932v-932h-932z" />
<glyph unicode="&#xfb01;" horiz-adv-x="1069" d="M20 778h158v-778h187v778h364v-778h186v928h-550v143q0 45 12 89t36.5 77t61.5 53.5t84 20.5q66 0 120 -17.5t83 -36.5l37 156q-41 23 -93.5 38t-125.5 15q-190 0 -296 -114.5t-106 -321.5v-102h-158v-150z" />
<glyph unicode="&#xfb02;" horiz-adv-x="1167" d="M20 778h158v-778h187v778h174l32 150h-206v80q0 72 20.5 128t56 95t83.5 59.5t102 20.5q55 0 91 -5.5t64 -19.5v-1061q0 -68 20.5 -113.5t49.5 -75.5t60.5 -45.5t54.5 -21.5l127 127q-45 8 -85 48t-40 106v1124q-66 51 -142.5 71.5t-171.5 20.5q-102 0 -190 -32.5 t-151.5 -96t-99.5 -157t-36 -213.5v-39h-158v-150z" />
</font>
</defs>
</svg>
