<?xml version="1.0" standalone="no"?>
<!DOCTYPE svg PUBLIC "-//W3C//DTD SVG 1.1//EN" "http://www.w3.org/Graphics/SVG/1.1/DTD/svg11.dtd" >
<svg xmlns="http://www.w3.org/2000/svg">
<metadata></metadata>
<defs>
<font id="agendaregular" horiz-adv-x="737" >
<font-face units-per-em="2048" ascent="1638" descent="-410" />
<missing-glyph horiz-adv-x="487" />
<glyph horiz-adv-x="0" />
<glyph horiz-adv-x="682" />
<glyph d="M150 1135l73 77q10 -6 53 -23.5t93 -17.5q51 0 92 17.5t51 23.5l74 -77q-6 -4 -24.5 -16.5t-48.5 -27t-66.5 -24.5t-77.5 -10q-43 0 -80 10t-65.5 24.5t-48 26.5t-25.5 17z" />
<glyph d="M283 1159q0 12 9 30.5t22.5 35t28.5 28t26 11.5q12 0 27.5 -11.5t27.5 -28t21.5 -35t9.5 -30.5t-9.5 -29.5t-21.5 -34t-27.5 -27.5t-27.5 -11q-10 0 -25.5 11t-29 27.5t-22.5 34t-9 29.5z" />
<glyph d="M162 1243q0 43 16.5 80t45 64.5t65.5 44t80 16.5t79.5 -16.5t65.5 -44t45 -64.5t16 -80t-16 -81t-45 -65.5t-65.5 -44t-79.5 -16.5t-80 16.5t-65.5 44t-45 65.5t-16.5 81zM246 1243q0 -53 34.5 -88t88.5 -35q53 0 88 35t35 88t-35 87t-88 34t-88 -34t-35 -87z" />
<glyph unicode="&#xa;" d="M57 1079q80 61 153 148.5t120 173.5l73 -76q-29 -47 -55 -83t-55 -66.5t-60.5 -59.5t-68.5 -59zM336 1079q80 61 152.5 148.5t119.5 173.5l74 -76q-29 -47 -55.5 -83t-56 -66.5t-61.5 -59.5t-69 -59z" />
<glyph d="M190 -287q0 49 19.5 92t51.5 80t72 67t83 48h121q-49 -23 -94.5 -52.5t-80 -64.5t-55 -74.5t-20.5 -82.5q0 -51 33.5 -78t87.5 -27q41 0 71.5 9.5t59.5 27.5l-23 -90q-23 -12 -53.5 -20.5t-77.5 -8.5q-39 0 -74 11.5t-61.5 34t-43 54t-16.5 74.5z" />
<glyph d="M102 1270l70 67q59 -29 107.5 -60.5t89.5 -78.5q41 47 88 79t106 60l72 -67q-80 -35 -147.5 -95.5t-118.5 -132.5q-53 72 -121 132.5t-146 95.5z" />
<glyph unicode="&#xd;" horiz-adv-x="487" />
<glyph horiz-adv-x="1236" d="M49 18l1075 1328l66 -56l-1073 -1329z" />
<glyph horiz-adv-x="1044" d="M35 821v107h147v102q0 106 30 188t82 137.5t125 83t161 27.5q66 0 113.5 -12t82.5 -33l-26 -110q-29 16 -77 30.5t-106 14.5q-113 0 -183.5 -83t-70.5 -218v-127h561v-928h-129v821h-432v-821h-131v821h-147z" />
<glyph horiz-adv-x="1126" d="M35 821v107h147v65q0 111 34 199t93.5 148.5t141 93t178.5 32.5q88 0 157.5 -19.5t122.5 -62.5v-1163q0 -66 35 -107.5t84 -52.5l-90 -88q-27 8 -55.5 24.5t-51 44.5t-38 69t-15.5 96v1116q-27 16 -66.5 24.5t-99.5 8.5q-63 0 -117.5 -23.5t-94.5 -67.5t-63.5 -106.5 t-23.5 -140.5v-90h230l-25 -107h-205v-821h-131v821h-147z" />
<glyph horiz-adv-x="921" d="M0 612l154 88v607h137v-527l207 119v-123l-207 -119v-538h608v-119h-745v578l-101 -58z" />
<glyph horiz-adv-x="518" d="M-2 612l172 99v747h129v-674l168 99v-123l-168 -96v-447q0 -66 36 -107.5t83 -52.5l-88 -88q-27 8 -55.5 24.5t-51 44.5t-38 68.5t-15.5 96.5v385l-119 -68z" />
<glyph horiz-adv-x="1011" d="M53 0v31l451 770q57 98 117.5 200.5t113.5 186.5l-2 2h-627v117h824v-31l-455 -774q-55 -94 -115.5 -195.5t-113.5 -187.5l2 -2h702v-117h-897zM235 1680l70 67q59 -29 107.5 -60.5t89.5 -78.5q41 47 88 79t106 60l72 -67q-80 -35 -147.5 -95.5t-118.5 -132.5 q-53 72 -121 132.5t-146 95.5z" />
<glyph horiz-adv-x="831" d="M53 0v25l322 528q39 63 82 133t84 129l-2 2h-447v111h645v-25l-323 -528q-39 -66 -81 -131.5t-83 -130.5l2 -2h520v-111h-719zM203 1268l59 57q49 -23 91 -50.5t77 -68.5q35 41 75 69t89 50l61 -57q-68 -31 -125 -81t-100 -112q-45 61 -103.5 111.5t-123.5 81.5z" />
<glyph unicode=" "  horiz-adv-x="487" />
<glyph unicode="&#x09;" horiz-adv-x="487" />
<glyph unicode="&#xa0;" horiz-adv-x="487" />
<glyph unicode="!" horiz-adv-x="483" d="M147 92q0 14 10.5 33.5t26 37t31.5 30t29 12.5q14 0 30.5 -12.5t30.5 -30t24.5 -37t10.5 -33.5t-10.5 -33.5t-24.5 -37t-30.5 -29.5t-30.5 -12q-12 0 -28.5 12t-32 29.5t-26 37t-10.5 33.5zM166 1397h151l-20 -1078l-109 29z" />
<glyph unicode="&#x22;" horiz-adv-x="567" d="M74 1458h129l-31 -420h-74zM365 1458h127l-27 -420h-74z" />
<glyph unicode="#" horiz-adv-x="843" d="M35 432v86h141l62 270h-142v86h162l100 433h99l-101 -433h222l98 433h98l-98 -433h119v-86h-142l-61 -270h141v-86h-162l-100 -432h-98l100 432h-219l-100 -432h-99l101 432h-121zM274 518h220l61 270h-219z" />
<glyph unicode="$" horiz-adv-x="921" d="M80 82l33 119q57 -45 133 -77t174 -32q63 0 115.5 19.5t89.5 51.5t57 75t20 92q0 94 -64.5 167.5t-199.5 120.5q-166 59 -258 154.5t-92 220.5q0 59 19.5 115.5t58.5 101.5t97.5 76t135.5 41v182h86v-180q90 -4 155 -25.5t112 -50.5l-29 -112q-51 33 -117.5 54.5 t-142.5 21.5q-63 0 -109.5 -18.5t-77 -49.5t-46 -69t-15.5 -74q0 -162 248 -254q172 -66 270 -166.5t98 -245.5q0 -141 -90 -241.5t-256 -116.5v-181h-86v176q-104 4 -181 32t-138 73z" />
<glyph unicode="%" horiz-adv-x="1433" d="M82 1053q0 61 20.5 112.5t57.5 87t87 56t109 20.5t109.5 -20.5t87.5 -56t58.5 -87t21.5 -112.5t-21.5 -112.5t-58.5 -87.5t-87 -56.5t-110 -20.5q-59 0 -109 20.5t-87 56.5t-57.5 87t-20.5 113zM145 18l1076 1328l65 -56l-1073 -1329zM190 1053q0 -82 48.5 -129 t117.5 -47q68 0 117 47t49 129t-49 128t-117 46q-70 0 -118 -46t-48 -128zM803 256q0 59 20.5 110.5t57.5 88.5t87 57t109 20t109.5 -20t87.5 -57t58.5 -88.5t21.5 -110.5q0 -61 -21.5 -112.5t-58.5 -88.5t-87 -57.5t-110 -20.5q-59 0 -109 20.5t-87 57.5t-57.5 88.5 t-20.5 112.5zM911 256q0 -82 49.5 -130t116.5 -48q70 0 119 48t49 130q0 80 -49 126t-119 46q-68 0 -117 -46t-49 -126z" />
<glyph unicode="&#x26;" horiz-adv-x="1204" d="M84 319q0 127 65.5 216.5t200.5 162.5q-90 88 -135 167t-45 157q0 72 27.5 128t72.5 96t101.5 61.5t115.5 21.5q61 0 121 -21.5t107 -61.5t75.5 -96t28.5 -128q0 -111 -75.5 -195t-196.5 -153l348 -348q98 133 147 301l88 -88q-23 -78 -60.5 -155t-88.5 -144l242 -240 h-176l-148 147q-80 -78 -184.5 -124t-235.5 -46q-88 0 -160.5 29t-125 76t-81 108.5t-28.5 128.5zM215 326q0 -47 21.5 -89t58.5 -75t86 -51.5t104 -18.5q92 0 175 38t153 103l-379 381q-111 -63 -165 -129.5t-54 -158.5zM295 1022q0 -59 41 -119.5t127 -144.5 q231 131 231 264q0 39 -16 75t-44 62.5t-66 43t-81 16.5q-41 0 -75.5 -16.5t-60 -44.5t-41 -62.5t-15.5 -73.5z" />
<glyph unicode="'" horiz-adv-x="276" d="M74 1458h129l-31 -420h-74z" />
<glyph unicode="(" horiz-adv-x="499" d="M84 489q0 295 61.5 527.5t169.5 435.5l131 -29q-104 -193 -169.5 -431t-65.5 -500q0 -270 57.5 -496.5t167.5 -454.5l-137 33q-47 94 -87 192.5t-68.5 209t-44 236.5t-15.5 277z" />
<glyph unicode=")" horiz-adv-x="499" d="M53 -430q104 193 170 432.5t66 499.5q0 135 -14.5 258t-44 239.5t-71.5 228t-98 226.5l140 -35q47 -94 87 -192.5t68.5 -209t44 -237t15.5 -276.5q0 -295 -61.5 -527.5t-172.5 -435.5z" />
<glyph unicode="*" horiz-adv-x="835" d="M51 1069l15 119l301 -109l-11 297l121 29l-14 -326l280 107l64 -109l-313 -84l188 -239l-82 -92l-184 272l-164 -252l-111 51l199 258z" />
<glyph unicode="+" horiz-adv-x="946" d="M90 512v111h322v305h123v-305h321v-111h-321v-305h-123v305h-322z" />
<glyph unicode="," horiz-adv-x="382" d="M57 -227q47 57 77 119.5t36 107.5q-23 6 -49.5 36t-26.5 56q0 14 10.5 33.5t25.5 37t31.5 30t28.5 12.5t29 -12.5t32 -29t25.5 -37t10.5 -34.5q0 -29 -14.5 -70.5t-38 -88t-55.5 -90.5t-64 -79z" />
<glyph unicode="-" horiz-adv-x="692" d="M90 512v111h512v-111h-512z" />
<glyph unicode="." horiz-adv-x="382" d="M92 92q0 14 10.5 33.5t24.5 37t31.5 30t29.5 12.5t30 -12.5t32 -30t24.5 -37t10.5 -33.5t-10.5 -33.5t-24.5 -37t-31.5 -29.5t-30.5 -12q-12 0 -29.5 12t-31.5 29.5t-24.5 37t-10.5 33.5z" />
<glyph unicode="/" horiz-adv-x="1271" d="M57 41l1071 1321l86 -70l-1069 -1323z" />
<glyph unicode="0" horiz-adv-x="1110" d="M86 655q0 168 38 294t102.5 211t149.5 127t179 42q90 0 175 -43t150.5 -127t104.5 -210t39 -294q0 -170 -39 -298t-104.5 -212t-149.5 -126t-176 -42q-94 0 -179 42t-149.5 126t-102.5 211t-38 299zM217 655q0 -145 27.5 -251.5t74 -175t107.5 -101.5t129 -33t129 33 t107.5 101.5t74 174t27.5 252.5q0 143 -27.5 249t-75 174.5t-108.5 101t-127 32.5q-68 0 -129 -32.5t-107.5 -101t-74 -174t-27.5 -249.5z" />
<glyph unicode="1" horiz-adv-x="598" d="M20 1182l29 112l365 33v-1327h-129v1208z" />
<glyph unicode="2" horiz-adv-x="937" d="M59 0v31q299 299 456 527t157 384q0 139 -79 205.5t-198 66.5q-82 0 -144.5 -23.5t-121.5 -64.5l-31 117q59 35 132 60.5t165 25.5q90 0 165 -25.5t129 -74.5t84 -123t30 -168q0 -92 -46 -199.5t-120 -217t-166 -215t-182 -193.5h579v-113h-809z" />
<glyph unicode="3" horiz-adv-x="856" d="M51 168q59 -37 125 -55.5t129 -18.5q70 0 130.5 19.5t105.5 59.5t71.5 97.5t26.5 135.5q0 55 -23.5 105t-63.5 89t-92 61.5t-110 22.5h-29.5t-29.5 -2l-31 109q61 10 111.5 32.5t87.5 53t57.5 67.5t20.5 78q0 82 -56.5 138.5t-158.5 56.5q-115 0 -216 -64l-26 111 q51 31 111.5 48t134.5 17q76 0 138 -22.5t107 -61.5t70 -93t25 -118q0 -47 -16.5 -90t-43 -79t-62.5 -60.5t-75 -36.5q55 -10 109.5 -40t97.5 -79t68.5 -114.5t25.5 -145.5q0 -90 -29.5 -166t-88 -130t-144.5 -83.5t-197 -29.5q-63 0 -119.5 13t-101.5 36z" />
<glyph unicode="4" horiz-adv-x="980" d="M23 471l632 836h88v-834h164v-106h-164v-367h-129v367h-567zM160 473h454v401v101.5t2 103.5l-4 2q-35 -55 -73.5 -107t-73.5 -100z" />
<glyph unicode="5" horiz-adv-x="911" d="M102 172q66 -41 135.5 -59.5t141.5 -18.5q66 0 123 21.5t100 59.5t67.5 93.5t24.5 122.5q0 68 -24.5 123t-67.5 95t-99.5 62.5t-119.5 22.5q-72 0 -129 -10t-104 -31l20 654h549l-27 -113h-399l-10 -399q18 6 46.5 10t63.5 4q90 0 169 -29.5t137.5 -84t92 -132.5 t33.5 -172q0 -84 -29.5 -158.5t-86 -131t-138.5 -89t-186 -32.5q-74 0 -140.5 16t-105.5 39z" />
<glyph unicode="6" horiz-adv-x="1009" d="M86 434q0 131 45 263t125 251t189.5 219.5t238.5 169.5l131 -57q-195 -96 -339 -252t-212 -336q29 41 94.5 77t157.5 36t168 -32t130 -87t84 -131t30 -164q0 -90 -31 -164.5t-86 -130t-131 -86t-168 -30.5q-86 0 -164 29.5t-136 88t-92 143.5t-34 193zM219 410 q0 -68 23.5 -126.5t63.5 -100.5t94.5 -65.5t113.5 -23.5t111.5 21.5t90.5 61.5t59.5 93t21.5 119t-21.5 121t-59.5 95t-91.5 62.5t-116.5 22.5q-104 0 -181 -53t-106 -164q-2 -10 -2 -30.5v-32.5z" />
<glyph unicode="7" horiz-adv-x="903" d="M45 1194v113h836l-559 -1307h-140l514 1194h-651z" />
<glyph unicode="8" horiz-adv-x="1019" d="M86 354q0 74 26.5 133.5t68.5 105.5t91.5 75.5t94.5 46.5q-43 16 -83 43.5t-71 65.5t-50.5 85t-19.5 103q0 70 29 128t79 100t116.5 65.5t142.5 23.5t142.5 -22.5t115.5 -64.5t77.5 -100.5t28.5 -129.5q0 -55 -19 -101.5t-50 -84.5t-71 -65.5t-83 -43.5q47 -14 97.5 -45 t91.5 -77t67.5 -106.5t26.5 -134.5q0 -88 -34 -157.5t-92 -118.5t-135 -75t-163 -26t-164 26t-135 75t-91 118.5t-34 157.5zM209 358q0 -59 24.5 -108t65.5 -84t94 -54.5t113 -19.5q59 0 112.5 19.5t94.5 54.5t65.5 84t24.5 108q0 55 -25.5 102.5t-67.5 84.5t-96.5 63.5 t-113.5 42.5q-57 -16 -110.5 -42.5t-93.5 -63.5t-63.5 -84t-23.5 -103zM272 1010q0 -82 65.5 -144.5t178.5 -93.5q111 35 172.5 95.5t61.5 142.5q0 45 -18.5 84t-51.5 66.5t-77 43t-93 15.5t-92 -15.5t-75 -43t-51.5 -66.5t-19.5 -84z" />
<glyph unicode="9" horiz-adv-x="1009" d="M82 920q0 88 30.5 162.5t86 130t132.5 86t167 30.5q86 0 163.5 -29.5t136 -88t92.5 -142t34 -192.5q0 -133 -45 -264.5t-125 -251t-188.5 -220t-237.5 -170.5l-131 58q193 98 337 252.5t214 334.5q-29 -41 -95.5 -75.5t-158.5 -34.5q-90 0 -166 30.5t-130.5 86t-85 131 t-30.5 166.5zM213 920q0 -66 21.5 -121.5t59.5 -95t91 -62.5t117 -23q104 0 181 53.5t105 164.5q2 10 3.5 30.5t1.5 32.5q0 68 -24 126t-64.5 100t-95 65.5t-113.5 23.5t-111.5 -21.5t-90.5 -61t-59.5 -94t-21.5 -117.5z" />
<glyph unicode=":" horiz-adv-x="382" d="M92 92q0 14 10.5 33.5t24.5 37t31.5 30t29.5 12.5t30 -12.5t32 -30t24.5 -37t10.5 -33.5t-10.5 -33.5t-24.5 -37t-31.5 -29.5t-30.5 -12q-12 0 -29.5 12t-31.5 29.5t-24.5 37t-10.5 33.5zM92 836q0 14 10.5 33.5t24.5 37t31.5 29.5t29.5 12t30 -12t32 -29.5t24.5 -37 t10.5 -33.5t-10.5 -34t-24.5 -37t-31.5 -29.5t-30.5 -12.5q-12 0 -29.5 12.5t-31.5 29.5t-24.5 36.5t-10.5 34.5z" />
<glyph unicode=";" horiz-adv-x="382" d="M57 -227q47 57 77 119.5t36 107.5q-23 6 -49.5 36t-26.5 56q0 14 10.5 33.5t25.5 37t31.5 30t28.5 12.5t29 -12.5t32 -29t25.5 -37t10.5 -34.5q0 -29 -14.5 -70.5t-38 -88t-55.5 -90.5t-64 -79zM92 836q0 14 10.5 33.5t24.5 37t31.5 29.5t29.5 12t30 -12t32 -29.5 t24.5 -37t10.5 -33.5t-10.5 -34t-24.5 -37t-31.5 -29.5t-30.5 -12.5q-12 0 -29.5 12.5t-31.5 29.5t-24.5 36.5t-10.5 34.5z" />
<glyph unicode="&#x3c;" horiz-adv-x="718" d="M100 567l363 363l86 -84l-279 -279l279 -278l-86 -84z" />
<glyph unicode="=" horiz-adv-x="946" d="M90 336v110h766v-110h-766zM90 688v111h766v-111h-766z" />
<glyph unicode="&#x3e;" horiz-adv-x="718" d="M172 289l277 278l-277 279l84 84l362 -363l-362 -362z" />
<glyph unicode="?" horiz-adv-x="784" d="M55 1317q45 43 115 71.5t160 28.5q80 0 148.5 -23.5t118.5 -68.5t77.5 -109.5t27.5 -146.5q0 -106 -56 -189t-136 -167q-59 -63 -87 -127t-28 -137q0 -37 2 -71t9 -61l-111 27q-6 27 -10 56.5t-4 62.5q0 98 34.5 182t98.5 150q66 66 109.5 132t43.5 154q0 43 -16 83 t-47 71t-75 49.5t-97 18.5q-80 0 -140.5 -29t-107.5 -76zM260 92q0 14 10.5 33.5t24.5 37t31.5 30t29.5 12.5q14 0 30.5 -12.5t31 -30t25 -37t10.5 -33.5t-10.5 -33.5t-25 -37t-30.5 -29.5t-31 -12q-12 0 -29.5 12t-31.5 29.5t-24.5 37t-10.5 33.5z" />
<glyph unicode="@" horiz-adv-x="1572" d="M86 539q0 166 64.5 311t176 251.5t261 168t317.5 61.5q135 0 242.5 -43t183.5 -116.5t116 -172t40 -211.5q0 -82 -26.5 -172t-77 -165.5t-123 -125t-162.5 -49.5q-61 0 -99 40t-36 118q-37 -72 -109 -115t-170 -43q-45 0 -87 17.5t-75 51.5t-52 83t-19 113 q0 109 42 196.5t108.5 151t149.5 97.5t167 34q78 0 134 -23.5t87 -52.5l-74 -426q-6 -35 -6 -55q0 -43 15.5 -62.5t37.5 -19.5q39 0 86 31.5t87 87t67.5 130.5t27.5 161q0 92 -33.5 172.5t-96 140t-152.5 94.5t-201 35q-141 0 -269 -54.5t-223.5 -147.5t-151.5 -220 t-56 -272q0 -113 35.5 -199t97 -143.5t143.5 -87t176 -29.5q137 0 230 65l-33 -118q-31 -20 -85 -33.5t-128 -13.5q-119 0 -219.5 39.5t-173 112.5t-113.5 176.5t-41 230.5zM567 543q0 -78 41 -122t105 -44q88 0 162.5 83t107.5 257l31 172q-14 10 -43 19.5t-62 9.5 q-63 0 -124.5 -28t-109.5 -78t-78 -118.5t-30 -150.5z" />
<glyph unicode="A" horiz-adv-x="1230" d="M53 0l541 1333h43l541 -1333h-140l-149 367h-553l-148 -367h-135zM383 479h459l-156 402q-18 45 -35.5 96t-34.5 104h-4q-16 -53 -34.5 -104t-36.5 -96z" />
<glyph unicode="B" horiz-adv-x="1034" d="M141 0v1307h322q68 0 131 -22.5t112.5 -63.5t78 -101.5t28.5 -136.5q0 -78 -39 -146.5t-104 -97.5q55 -12 105 -43.5t89 -78t61.5 -106t22.5 -122.5q0 -92 -34.5 -164.5t-92 -122t-131.5 -76t-153 -26.5h-396zM279 119h231q59 0 113.5 18.5t95.5 52t65.5 83.5t24.5 116 q0 63 -24.5 113.5t-66.5 85.5t-98.5 53t-117.5 18h-223v-540zM279 778h170q92 0 158.5 53.5t66.5 151.5q0 100 -66.5 152.5t-165.5 52.5h-163v-410z" />
<glyph unicode="C" horiz-adv-x="1224" d="M86 653q0 160 59.5 285t156.5 212t222 133t254 46q127 0 223.5 -24.5t161.5 -63.5l-26 -121q-57 37 -148.5 63.5t-195.5 26.5q-111 0 -213.5 -37.5t-181.5 -110.5t-126 -176.5t-47 -232.5t46 -231.5t125 -175t181.5 -110.5t215.5 -38q227 0 368 88l-33 -139 q-61 -35 -144 -52.5t-206 -17.5q-131 0 -256 46.5t-221 134.5t-155.5 213t-59.5 282z" />
<glyph unicode="D" horiz-adv-x="1296" d="M141 0v1307h342q147 0 279.5 -44t232 -127t156.5 -205t57 -278t-57 -277.5t-156.5 -204.5t-231.5 -127t-280 -44h-342zM279 119h184q129 0 239.5 34.5t191.5 102.5t127 167t46 230t-46 230.5t-127 167t-191.5 102.5t-239.5 35h-184v-1069z" />
<glyph unicode="E" horiz-adv-x="940" d="M141 0v1307h682v-119h-544v-471h446v-119h-446v-479h616v-119h-754z" />
<glyph unicode="F" horiz-adv-x="868" d="M141 0v1307h695v-119h-557v-471h475v-119h-475v-598h-138z" />
<glyph unicode="G" horiz-adv-x="1382" d="M86 653q0 160 59.5 285t155.5 212t221 133t256 46q129 0 233.5 -26.5t178.5 -73.5l-29 -121q-72 47 -167 74.5t-201 27.5q-111 0 -214.5 -38.5t-181.5 -110.5t-125 -175.5t-47 -234.5q0 -129 46 -231.5t125 -174t181.5 -109.5t217.5 -38q111 0 198.5 27t136.5 61v324 h-344v113h478v-504q-88 -68 -208 -105t-270 -37q-137 0 -263 47.5t-223 134.5t-155.5 212t-58.5 282z" />
<glyph unicode="H" horiz-adv-x="1306" d="M141 0v1307h138v-590h749v590h137v-1307h-137v598h-749v-598h-138z" />
<glyph unicode="I" horiz-adv-x="489" d="M176 0v1307h137v-1307h-137z" />
<glyph unicode="J" horiz-adv-x="516" d="M-123 -162q158 33 242 138.5t84 302.5v1028h137v-1043q0 -117 -30.5 -207t-83 -154.5t-120 -103.5t-139.5 -53z" />
<glyph unicode="K" horiz-adv-x="1060" d="M141 0v1307h138v-629l569 629h162l-588 -648l612 -659h-170l-585 627v-627h-138z" />
<glyph unicode="L" horiz-adv-x="909" d="M141 0v1307h138v-1188h608v-119h-746z" />
<glyph unicode="M" horiz-adv-x="1679" d="M121 0l104 1307h88l361 -734q43 -88 87 -181t83 -185h4q37 90 79 180t89 186l358 734h88l109 -1307h-133l-56 678q-6 86 -11 171t-9 169h-4q-35 -82 -79 -175t-83 -173l-332 -684h-45l-334 684q-37 78 -80 169t-81 177h-5q-4 -84 -9 -172t-11 -166l-53 -678h-125z" />
<glyph unicode="N" horiz-adv-x="1419" d="M141 0v1307h97l606 -695q68 -78 149.5 -174t147.5 -176l4 2q-4 88 -4 175v171v697h137v-1336h-37l-643 738q-84 96 -168 195.5t-151 180.5l-5 -2q4 -92 4.5 -182t0.5 -180v-721h-138z" />
<glyph unicode="O" horiz-adv-x="1540" d="M86 655q0 152 56.5 276t150.5 213t218 137t259 48t259 -48t218 -137t150.5 -213t56.5 -276q0 -154 -56.5 -278.5t-150.5 -213.5t-218 -137.5t-259 -48.5t-259 48.5t-218 137.5t-150.5 214t-56.5 278zM225 655q0 -127 45 -229t120 -175t173.5 -113t206.5 -40 q106 0 204.5 40t174.5 113t121 175t45 229q0 125 -45 228.5t-121 175t-174 111.5t-205 40q-109 0 -207 -40t-173 -111.5t-120 -175t-45 -228.5z" />
<glyph unicode="P" horiz-adv-x="925" d="M141 0v1307h365q74 0 143.5 -23.5t122.5 -70t85 -112t32 -149.5t-32 -149.5t-84 -111.5t-119.5 -69.5t-139.5 -23.5h-235v-598h-138zM279 717h213q51 0 98 15.5t82 46t56.5 74.5t21.5 99t-21.5 99.5t-57.5 74t-84 46t-104 16.5h-204v-471z" />
<glyph unicode="Q" horiz-adv-x="1540" d="M86 655q0 152 56.5 276t150.5 213t218 137t259 48t259 -48t218 -137t150.5 -213t56.5 -276q0 -127 -42 -237.5t-113.5 -196.5t-170 -141t-208.5 -74v-4q23 -4 54.5 -17.5t78.5 -35.5q98 -49 171.5 -70.5t145.5 -21.5q92 0 164 32l-92 -129q-39 -14 -96 -14q-53 0 -99.5 6 t-91.5 20.5t-93 35t-104 51.5q-78 41 -142 71.5t-111 51.5q-127 12 -239 65t-197 140t-134 206t-49 262zM225 655q0 -127 45 -229t120 -175t173.5 -113t206.5 -40q106 0 204.5 40t174.5 113t121 175t45 229q0 125 -45 228.5t-121 175t-174 111.5t-205 40q-109 0 -207 -40 t-173 -111.5t-120 -175t-45 -228.5z" />
<glyph unicode="R" horiz-adv-x="1079" d="M141 0v1307h373q74 0 143.5 -23.5t123 -70t85 -112t31.5 -149.5q0 -129 -72.5 -216t-183.5 -118l459 -618h-160l-436 598h-225v-598h-138zM279 717h221q51 0 98 15.5t82 46t56.5 74.5t21.5 99t-21.5 99.5t-57.5 74t-84 46t-103 16.5h-213v-471z" />
<glyph unicode="S" horiz-adv-x="946" d="M53 240q86 -66 181.5 -104t209.5 -38q123 0 201 65.5t78 174.5q0 102 -63.5 168.5t-200.5 114.5q-176 61 -260 155t-84 223q0 61 23.5 120t70.5 106t120.5 75.5t172.5 28.5q90 0 162.5 -23.5t113.5 -52.5l-28 -114q-39 29 -108 52t-144 23q-61 0 -108.5 -18t-78 -47 t-47 -67t-16.5 -74q0 -78 57 -139.5t182 -108.5q88 -33 158 -72t118 -87t73.5 -109.5t25.5 -141.5q0 -170 -113.5 -271.5t-310.5 -101.5q-115 0 -204 31t-142 70z" />
<glyph unicode="T" horiz-adv-x="1064" d="M14 1188v119h1037v-119h-451v-1188h-137v1188h-449z" />
<glyph unicode="U" horiz-adv-x="1302" d="M141 453v854h138v-842q0 -172 97 -268.5t277 -96.5q178 0 276.5 96.5t98.5 268.5v842h133v-854q0 -111 -37 -199t-104.5 -149.5t-161.5 -94.5t-207 -33q-115 0 -208 33t-160.5 94.5t-104.5 149.5t-37 199z" />
<glyph unicode="V" horiz-adv-x="1148" d="M33 1307h145l275 -701q31 -80 64.5 -171t62.5 -179h4q29 86 60.5 176t64.5 174l276 701h131l-522 -1327h-39z" />
<glyph unicode="W" horiz-adv-x="1886" d="M55 1307h140l237 -686q29 -80 57.5 -166t51.5 -176h4q25 88 52.5 174t55.5 168l236 686h121l235 -686q59 -168 107 -342h4q25 84 53.5 171t56.5 171l236 686h129l-461 -1327h-41l-262 761q-31 90 -60.5 181.5t-62.5 199.5h-4q-33 -109 -62.5 -200t-60.5 -181l-260 -761 h-43z" />
<glyph unicode="X" horiz-adv-x="1128" d="M59 0l422 666l-401 641h158l223 -357q25 -41 53.5 -88t50.5 -90h4q23 43 51.5 90t53.5 88l227 357h148l-402 -633l422 -674h-158l-235 377q-29 43 -56.5 91t-56.5 97h-4q-27 -49 -57.5 -98t-55.5 -90l-239 -377h-148z" />
<glyph unicode="Y" horiz-adv-x="1183" d="M25 1307h151l283 -400q31 -45 67.5 -98t67.5 -100h4q31 47 65.5 99t69.5 99l285 400h141l-502 -703v-604h-135v604z" />
<glyph unicode="Z" horiz-adv-x="1011" d="M53 0v31l451 770q57 98 117.5 200.5t113.5 186.5l-2 2h-627v117h824v-31l-455 -774q-55 -94 -115.5 -195.5t-113.5 -187.5l2 -2h702v-117h-897z" />
<glyph unicode="[" horiz-adv-x="604" d="M133 -446v1880h404v-111h-275v-1659h275v-110h-404z" />
<glyph unicode="\" horiz-adv-x="1271" d="M57 1292l86 70l1071 -1321l-90 -72z" />
<glyph unicode="]" horiz-adv-x="604" d="M74 -336h276v1659h-276v111h403v-1880h-403v110z" />
<glyph unicode="^" horiz-adv-x="774" d="M74 1106q94 41 174 111.5t139 156.5q59 -86 139 -156.5t174 -111.5l-84 -82q-68 31 -124 71t-105 93q-49 -53 -105.5 -93t-123.5 -71z" />
<glyph unicode="_" horiz-adv-x="1024" d="M-2 -360h1030v-113h-1030v113z" />
<glyph unicode="`" d="M154 1221l26 120q76 -78 179.5 -131t207.5 -82l-73 -71q-92 23 -178.5 60.5t-161.5 103.5z" />
<glyph unicode="a" horiz-adv-x="913" d="M76 252q0 68 24.5 119t66.5 87t95 55t111 26l248 24v88q0 86 -57.5 135.5t-162.5 49.5q-66 0 -132 -19.5t-113 -50.5l-27 108q53 37 127 55.5t152 18.5q74 0 137 -20.5t109 -59.5t72 -97t26 -132v-424q0 -70 34.5 -106.5t79.5 -45.5l-84 -83q-47 10 -88 49t-51 92 q-37 -66 -110.5 -103.5t-159.5 -37.5q-66 0 -120 21.5t-94 58t-61.5 86t-21.5 106.5zM201 252q0 -70 51 -116t125 -46q41 0 84 17.5t78.5 48t58.5 74.5t23 100v125l-228 -21q-90 -8 -141 -57t-51 -125z" />
<glyph unicode="b" horiz-adv-x="1046" d="M135 66v1392h129v-563q35 25 89.5 39t121.5 14q100 0 190.5 -34.5t158 -98t107.5 -153t40 -195.5q0 -111 -38 -200t-105.5 -153.5t-162 -99t-206.5 -34.5q-98 0 -181 24.5t-143 61.5zM264 137q35 -16 82 -29.5t113 -13.5q86 0 156.5 28t120.5 77t77 117.5t27 150.5 t-30 149.5t-80 115.5t-116.5 75t-138.5 27q-66 0 -121 -17.5t-90 -46.5v-633z" />
<glyph unicode="c" horiz-adv-x="935" d="M76 463q0 111 40 201t108.5 152.5t158.5 97t190 34.5q90 0 164 -20.5t127 -50.5l-26 -115q-53 35 -120 53.5t-138 18.5q-78 0 -146.5 -27t-119 -76t-79 -117.5t-28.5 -150.5t29.5 -149.5t80 -117t119 -76t148.5 -26.5q72 0 136 15.5t136 52.5l-33 -131 q-47 -27 -112.5 -39t-137.5 -12q-98 0 -188 33.5t-158.5 97t-109.5 152.5t-41 200z" />
<glyph unicode="d" horiz-adv-x="1083" d="M76 463q0 106 37 195.5t102.5 154t154.5 100t193 35.5q78 0 145.5 -22.5t108.5 -53.5v586h131v-1458h-114l-5 78q-47 -49 -121.5 -73.5t-164.5 -24.5q-86 0 -170 32.5t-150.5 95t-106.5 151.5t-40 204zM207 463q0 -82 27.5 -149.5t75.5 -117t112.5 -76t140.5 -26.5 q80 0 145.5 26.5t108.5 74.5v540q-41 41 -108.5 70t-145.5 29q-76 0 -140.5 -28t-112.5 -77t-75.5 -116.5t-27.5 -149.5z" />
<glyph unicode="e" horiz-adv-x="989" d="M76 463q0 113 39 202t102.5 152.5t143 97t163.5 33.5q94 0 167 -29.5t122 -78.5t74.5 -112t25.5 -126v-32.5t-4 -30.5l-78 -76h-620q-1 -10 -1 -20q0 -61 22 -117q24 -66 73 -117t119 -83t156 -32q84 0 153.5 21.5t136.5 70.5l-36 -143q-53 -31 -118 -47t-151 -16 q-100 0 -189 35.5t-155.5 99t-105.5 152.5t-39 196zM221 569h561q2 9 2 27q0 41 -16 83t-48 77t-79 57.5t-111 22.5q-57 0 -109 -22.5t-93 -59.5t-70 -85t-37 -100z" />
<glyph unicode="f" horiz-adv-x="653" d="M35 821v107h147v104q0 215 100.5 324.5t282.5 109.5q43 0 83 -8t71 -22l-27 -111q-29 14 -67.5 22.5t-79.5 8.5q-111 0 -171.5 -82t-60.5 -207v-139h293l-24 -107h-269v-821h-131v821h-147z" />
<glyph unicode="g" horiz-adv-x="933" d="M51 -154q0 57 18.5 104.5t49.5 84.5t70.5 60.5t80.5 33.5l-110 100q0 25 11 47.5t29.5 43t42 36t46.5 21.5q-70 35 -120 103.5t-50 160.5q0 68 25.5 124t70.5 97t107.5 63.5t136.5 22.5q37 0 65.5 -5t50.5 -11q45 -14 115 -14q41 0 78 9t63 23l27 -106q-16 -10 -57 -19.5 t-70 -9.5q29 -29 48.5 -74t19.5 -100q0 -61 -23.5 -117.5t-67.5 -99.5t-107.5 -67.5t-141.5 -24.5t-119 -21.5t-41 -50.5q0 -6 25.5 -30.5t58.5 -34.5l240 -82q119 -41 183 -107.5t64 -183.5q0 -63 -29.5 -116.5t-84 -93.5t-129 -62.5t-164.5 -22.5q-92 0 -168 24.5 t-130 67.5t-84 101.5t-30 125.5zM168 -154q0 -41 19.5 -78.5t57.5 -67.5t92 -48.5t124 -18.5q68 0 121 16.5t90 43t56.5 60.5t19.5 69q0 66 -43 110.5t-121 69.5l-187 57q-100 -2 -164.5 -61t-64.5 -152zM240 641q0 -86 62.5 -143.5t158.5 -57.5q43 0 83 15.5t69.5 43 t47 63.5t17.5 79q0 41 -16.5 77t-46 63.5t-69.5 43t-85 15.5q-96 0 -158.5 -58.5t-62.5 -140.5z" />
<glyph unicode="h" horiz-adv-x="1036" d="M135 0v1458h129v-635q35 49 105.5 87t189.5 38q76 0 140.5 -22.5t112.5 -63.5t74.5 -101.5t26.5 -135.5v-625h-129v612q0 98 -65.5 161t-190.5 63q-121 0 -192.5 -62.5t-71.5 -161.5v-612h-129z" />
<glyph unicode="i" horiz-adv-x="471" d="M150 1206q0 12 9 29.5t22.5 33t27.5 27t27 11.5q12 0 26 -11.5t28.5 -27t24 -33t9.5 -29.5t-9.5 -29.5t-24 -33t-28.5 -25.5t-26 -10t-26.5 10t-28 25.5t-22.5 33t-9 29.5zM170 0v928h131v-928h-131z" />
<glyph unicode="j" horiz-adv-x="471" d="M-33 -389q98 23 150.5 94.5t52.5 198.5v1024h131v-1034q0 -72 -20.5 -133.5t-54 -108.5t-79 -79t-96.5 -44zM150 1206q0 12 9 29.5t22.5 33t27.5 27t27 11.5q12 0 26 -11.5t27.5 -27t23 -33t9.5 -29.5t-9.5 -29.5t-23 -33t-27.5 -25.5t-26 -10t-26.5 10t-28 25.5 t-22.5 33t-9 29.5z" />
<glyph unicode="k" horiz-adv-x="882" d="M135 0v1458h129v-973l430 443h156l-438 -455l460 -473h-167l-441 451v-451h-129z" />
<glyph unicode="l" horiz-adv-x="518" d="M170 203v1255h129v-1241q0 -66 36 -107.5t83 -52.5l-88 -88q-27 8 -55.5 24.5t-51 44.5t-38 68.5t-15.5 96.5z" />
<glyph unicode="m" horiz-adv-x="1564" d="M121 0v928h117l4 -103q37 51 102.5 87t181.5 36q92 0 166 -40t109 -105q35 59 113.5 102t207.5 43q70 0 128.5 -20.5t101.5 -58.5t67.5 -91t24.5 -116v-662h-129v651q0 88 -60.5 136.5t-169.5 48.5q-106 0 -171.5 -49.5t-65.5 -135.5v-651h-129v651q0 88 -61.5 136.5 t-170.5 48.5q-106 0 -171.5 -49.5t-65.5 -135.5v-651h-129z" />
<glyph unicode="n" horiz-adv-x="1019" d="M121 0v928h117l4 -113q37 53 108.5 93t194.5 40q76 0 140.5 -22.5t112.5 -63.5t74.5 -101.5t26.5 -135.5v-625h-129v612q0 98 -65.5 161t-190.5 63q-121 0 -192.5 -62.5t-71.5 -161.5v-612h-129z" />
<glyph unicode="o" horiz-adv-x="1128" d="M76 463q0 106 38 195.5t103.5 154t154.5 100t193 35.5t193.5 -35.5t155 -100t102.5 -154t37 -195.5t-37 -194.5t-102.5 -153t-154.5 -100t-194 -35.5q-104 0 -193 35.5t-154.5 100t-103.5 152.5t-38 195zM207 463q0 -82 27.5 -149.5t75.5 -117t113.5 -76t141.5 -26.5 q74 0 138.5 26.5t113.5 76t77 117t28 149.5t-28 149.5t-77 116.5t-113.5 77t-138.5 28q-76 0 -141.5 -28t-113.5 -77t-75.5 -116.5t-27.5 -149.5z" />
<glyph unicode="p" horiz-adv-x="1083" d="M135 -473v1401h115l2 -78q49 49 123 73.5t166 24.5q86 0 170 -32.5t149.5 -95t106.5 -152.5t41 -203q0 -106 -37 -195.5t-102.5 -154t-154.5 -100t-194 -35.5q-78 0 -146.5 22.5t-109.5 52.5v-528h-129zM264 193q41 -41 109.5 -70t146.5 -29q76 0 140.5 28t112.5 77 t76 116.5t28 149.5t-28 149.5t-76 116.5t-112.5 76t-140.5 27q-80 0 -145.5 -27t-110.5 -74v-540z" />
<glyph unicode="q" horiz-adv-x="1046" d="M76 469q0 111 39 199t105.5 150.5t155.5 96t189 33.5q66 0 135.5 -16.5t118.5 -42.5l53 51h39v-1413h-129v506q-39 -25 -92 -39t-117 -14q-102 0 -192 34.5t-157.5 99t-107.5 154.5t-40 201zM207 469q0 -86 29.5 -154.5t80 -118t117 -76t139.5 -26.5q61 0 114.5 17.5 t94.5 46.5v618q-37 25 -94 41.5t-123 16.5q-74 0 -139.5 -27t-114.5 -75t-76.5 -115.5t-27.5 -147.5z" />
<glyph unicode="r" horiz-adv-x="651" d="M141 0v928h123l6 -178q29 86 114 138t208 52l26 -111h-20q-66 0 -125 -23.5t-104 -69.5t-72 -116.5t-27 -164.5v-455h-129z" />
<glyph unicode="s" horiz-adv-x="761" d="M63 205q57 -53 134 -84t163 -31q78 0 132.5 39t54.5 107q0 66 -47 107.5t-125 70.5q-129 47 -200 112.5t-71 175.5q0 55 21.5 100.5t59.5 77t91.5 50t114.5 18.5q76 0 138.5 -20.5t88.5 -38.5l-24 -107q-29 18 -82 38t-123 20t-114 -37t-44 -96q0 -61 42 -98.5t120 -65.5 q133 -47 208 -116.5t75 -184.5q0 -117 -85 -189.5t-233 -72.5q-86 0 -152.5 21.5t-107.5 53.5z" />
<glyph unicode="t" horiz-adv-x="712" d="M27 821v107h192v200l129 68v-268h332l-27 -107h-305v-590q0 -68 40 -100.5t97 -32.5q66 0 107 19l-31 -121q-31 -10 -86 -10q-109 0 -182.5 63.5t-73.5 186.5v585h-192z" />
<glyph unicode="u" horiz-adv-x="1019" d="M121 303v625h129v-613q0 -98 65.5 -160.5t190.5 -62.5q121 0 192.5 62.5t71.5 160.5v613h129v-928h-117l-4 113q-37 -53 -108.5 -93t-194.5 -40q-76 0 -140.5 22.5t-112.5 63t-74.5 101t-26.5 136.5z" />
<glyph unicode="v" horiz-adv-x="940" d="M55 928h131l199 -475q23 -57 46.5 -117t41.5 -119h4q20 59 43 117.5t47 118.5l195 475h123l-391 -946h-48z" />
<glyph unicode="w" horiz-adv-x="1456" d="M66 928h124l168 -463q23 -59 41.5 -118.5t34.5 -113.5h4q16 53 36 115t40 115l168 465h98l168 -463q20 -53 40 -112.5t36 -119.5h4q18 59 37.5 117t40.5 113l166 465h119l-347 -946h-40l-187 505q-23 63 -44 127t-42 131h-4q-23 -70 -43 -132t-43 -121l-186 -510h-43z " />
<glyph unicode="x" horiz-adv-x="888" d="M70 0l301 473l-285 455h145l146 -234q37 -59 67 -116h5q31 53 69 116l146 234h141l-285 -451l299 -477h-145l-156 246q-41 61 -72 125h-4q-16 -31 -37.5 -64t-39.5 -61l-156 -246h-139z" />
<glyph unicode="y" horiz-adv-x="950" d="M-16 -395q131 41 233 152.5t193 324.5l-359 846h135l199 -467q23 -55 46.5 -113.5t45.5 -120.5h4q23 59 45.5 115.5t46.5 114.5l201 471h125l-360 -848q-106 -250 -222 -379t-254 -178z" />
<glyph unicode="z" horiz-adv-x="831" d="M53 0v25l322 528q39 63 82 133t84 129l-2 2h-447v111h645v-25l-323 -528q-39 -66 -81 -131.5t-83 -130.5l2 -2h520v-111h-719z" />
<glyph unicode="{" horiz-adv-x="675" d="M31 492q104 66 145 178t41 258q0 104 19.5 196.5t63.5 161t114.5 107.5t173.5 39l28 -103q-76 0 -128 -28.5t-83.5 -83t-46 -129t-14.5 -166.5q0 -139 -37 -246t-123 -184q86 -76 123 -183.5t37 -247.5q0 -92 14.5 -166.5t46 -129t84 -83t127.5 -28.5l-28 -103 q-102 0 -173 39t-115 108t-63.5 161t-19.5 198q0 145 -41 257t-145 178z" />
<glyph unicode="|" horiz-adv-x="440" d="M164 -473v1931h112v-1931h-112z" />
<glyph unicode="}" horiz-adv-x="675" d="M61 -346q76 0 127.5 28.5t83 83t46 129t14.5 166.5q0 139 37 247t125 184q-88 78 -125 184t-37 246q0 92 -14.5 166.5t-46 129t-83 83t-127.5 28.5l27 103q102 0 174 -39t116 -107.5t63.5 -161t19.5 -196.5q0 -145 41 -257.5t145 -178.5q-104 -66 -145 -177.5t-41 -257.5 q0 -106 -19.5 -198t-63.5 -161t-116 -108t-174 -39z" />
<glyph unicode="~" horiz-adv-x="798" d="M115 475l22 107q61 39 131 66.5t148 31.5l33 -115q59 4 121.5 31t115.5 59l-22 -104q-59 -43 -131 -68.5t-148 -29.5l-33 112q-57 -4 -120.5 -29.5t-116.5 -60.5z" />
<glyph unicode="&#xa1;" horiz-adv-x="483" d="M141 1217q0 14 10.5 33.5t24.5 37t31.5 29.5t30.5 12q12 0 29.5 -12t31.5 -29.5t24.5 -37t10.5 -33.5q0 -12 -10.5 -32t-24.5 -37.5t-31.5 -29.5t-29.5 -12t-30 12t-32 29.5t-24.5 37t-10.5 32.5zM164 -86l22 1077l109 -28l22 -1049h-153z" />
<glyph unicode="&#xa2;" horiz-adv-x="935" d="M76 834q0 104 35.5 189t97 148.5t143.5 100.5t176 45v192h86v-192q78 -4 140.5 -23.5t109.5 -48.5l-26 -115q-53 37 -120 55.5t-138 18.5q-78 0 -146.5 -26.5t-119 -75.5t-79 -118t-28.5 -150q0 -82 29.5 -150t80 -117t119 -75.5t148.5 -26.5q72 0 136 14.5t136 52.5 l-33 -131q-41 -23 -95 -35t-114 -16v-182h-86v184q-92 6 -175 43t-144.5 99.5t-97 148.5t-35.5 191z" />
<glyph unicode="&#xa3;" horiz-adv-x="868" d="M41 608v86h147v187q0 227 105.5 335.5t290.5 108.5q43 0 83 -8t70 -23l-26 -110q-29 14 -68 22t-80 8q-115 0 -180.5 -82.5t-65.5 -218.5v-219h314l-13 -86h-301v-116q0 -137 -19 -230.5t-48 -146.5q41 10 105.5 17t123.5 7q74 0 160 -11t158 -38l-19 -113 q-66 25 -143.5 38.5t-159.5 13.5q-86 0 -167 -14.5t-130 -30.5l-100 53q55 86 82.5 196.5t27.5 268.5v106h-147z" />
<glyph unicode="&#xa4;" horiz-adv-x="1003" d="M100 899l62 64l135 -136q41 35 93 53.5t112 18.5q57 0 108.5 -18.5t94.5 -49.5l133 134l61 -62l-133 -133q33 -43 51.5 -94t18.5 -109q0 -59 -19.5 -111.5t-54.5 -95.5l137 -135l-63 -61l-136 135q-43 -29 -93 -46t-105 -17q-57 0 -108.5 18t-92.5 49l-137 -137l-62 63 l138 138q-68 86 -68 200q0 113 64 195l-68 67q-31 31 -68 70zM254 567q0 -51 19.5 -97t53 -80t79 -53.5t96.5 -19.5t97 19.5t81 53.5t54.5 80t19.5 97t-19.5 96.5t-54.5 79t-81 53t-97 19.5t-96.5 -19.5t-79 -53t-53 -79t-19.5 -96.5z" />
<glyph unicode="&#xa5;" horiz-adv-x="1183" d="M25 1307h153l283 -400q35 -47 69.5 -99t65.5 -99h4q31 47 66.5 99t68.5 99l285 400h139l-383 -537h185v-86h-246l-58 -80v-37h304v-86h-304v-481h-135v481h-311v86h311v35l-55 82h-256v86h192z" />
<glyph unicode="&#xa6;" horiz-adv-x="440" d="M164 371h112v-844h-112v844zM164 614v844h112v-844h-112z" />
<glyph unicode="&#xa7;" horiz-adv-x="927" d="M117 1006q0 57 22.5 114.5t67.5 103.5t113.5 74.5t160.5 28.5q94 0 166 -20.5t123 -53.5l-29 -118q-49 35 -116.5 55t-141.5 20q-61 0 -106 -18t-75 -47t-43 -66t-13 -73q0 -37 12 -75t39 -65l520 -534l-72 -252q74 -80 74 -213q0 -57 -22.5 -114.5t-66.5 -103.5 t-112.5 -75t-160.5 -29q-96 0 -167 20.5t-122 53.5l27 119q51 -35 117.5 -55.5t140.5 -20.5q61 0 107 18.5t75 47t43 65.5t14 74q0 35 -10 71.5t-41 67.5l-520 535l69 252q-74 80 -73 213zM215 596l461 -471l47 156l-465 469z" />
<glyph unicode="&#xa8;" d="M141 1159q0 12 9.5 30.5t22.5 35t28.5 28t25.5 11.5q12 0 27.5 -11.5t28 -28t21.5 -35t9 -30.5t-9 -29.5t-21.5 -34t-27.5 -27.5t-28 -11q-10 0 -25.5 11t-28.5 27.5t-22.5 34t-9.5 29.5zM424 1159q0 12 9 30.5t21.5 35t28 28t27.5 11.5t26.5 -11.5t28 -28t21.5 -35 t8 -30.5t-8 -29.5t-21.5 -34t-28 -27.5t-26.5 -11t-27.5 11t-28 27.5t-21.5 34t-9 29.5z" />
<glyph unicode="&#xa9;" horiz-adv-x="1230" d="M74 512q0 119 42 218t115.5 170t172 110t210.5 39q115 0 214.5 -39t172 -110t114.5 -170t42 -218t-42 -217t-114.5 -169t-172 -111t-214.5 -40q-113 0 -211 40t-171.5 111t-115.5 169t-42 217zM160 512q0 -98 33.5 -182t94 -145.5t144.5 -96.5t182 -35t182.5 35t146 96.5 t95 145.5t33.5 182t-33.5 182t-95 145.5t-145.5 96.5t-183 35q-98 0 -182 -35t-144.5 -96.5t-94 -145.5t-33.5 -182zM348 510q0 63 24.5 117.5t66.5 92.5t97.5 59.5t114.5 21.5t106.5 -16.5t78.5 -39.5l-19 -88q-72 45 -162 45q-82 0 -140 -53t-58 -139q0 -90 58 -146.5 t140 -56.5q41 0 83 11.5t89 46.5l-26 -113q-27 -16 -67 -28.5t-83 -12.5q-59 0 -114.5 21.5t-97.5 61.5t-66.5 95t-24.5 121z" />
<glyph unicode="&#xaa;" horiz-adv-x="745" d="M76 778q0 51 19.5 91t52 70t75.5 46t88 21l199 20v66q0 63 -44 101t-124 38q-53 0 -106.5 -15.5t-92.5 -44.5l-26 97q47 33 106.5 47t122.5 14q123 0 202 -63.5t79 -184.5v-333q0 -53 28.5 -81t69.5 -36l-78 -76q-41 8 -71.5 35.5t-43.5 68.5q-31 -47 -90 -75.5 t-125 -28.5q-106 0 -173.5 64.5t-67.5 158.5zM186 772q0 -55 39 -91t97 -36q33 0 65.5 12.5t60 37t45 60.5t17.5 81v98l-182 -19q-61 -8 -101.5 -46t-40.5 -97zM299 309q0 12 9 30.5t21.5 35t27 28t26.5 11.5t26.5 -11.5t27 -28t20.5 -35t8 -30.5t-8 -29.5t-20.5 -34 t-27 -27.5t-26.5 -11t-26.5 11t-27 27.5t-21.5 34t-9 29.5z" />
<glyph unicode="&#xab;" horiz-adv-x="849" d="M10 567q102 68 187.5 159t138.5 187l74 -73q-37 -78 -95.5 -148.5t-124.5 -124.5q66 -53 124.5 -123.5t95.5 -148.5l-74 -74q-53 96 -138 188.5t-188 157.5zM397 567q104 68 189.5 159t138.5 187l74 -73q-37 -78 -95.5 -148.5t-123.5 -124.5q66 -53 124 -123.5t95 -148.5 l-74 -74q-53 96 -138 188.5t-190 157.5z" />
<glyph unicode="&#xac;" horiz-adv-x="1040" d="M90 512v111h819v-330h-116v219h-703z" />
<glyph unicode="&#xad;" horiz-adv-x="882" d="M113 514v96h657v-96h-657z" />
<glyph unicode="&#xae;" horiz-adv-x="925" d="M76 946q0 84 29.5 154.5t82 121t123 79t152.5 28.5t152.5 -28.5t123 -79t82 -121t29.5 -154.5t-29.5 -154.5t-82 -122t-123 -80t-152.5 -28.5t-152.5 28.5t-123 80t-82 122t-29.5 154.5zM145 946q0 -72 24 -130t67 -100t101 -65.5t126 -23.5t126 23.5t100 65.5t66.5 100 t24.5 130q0 70 -24.5 129.5t-66.5 101.5t-100.5 65.5t-125.5 23.5q-68 0 -126 -23.5t-101 -65.5t-67 -101.5t-24 -129.5zM330 711v467h139q59 0 103 -38t44 -98q0 -41 -20.5 -72.5t-52.5 -47.5l119 -170l-62 -43l-133 194h-64v-192h-73zM403 971h58q39 0 60.5 19t21.5 52 q0 31 -21.5 50.5t-60.5 19.5h-58v-141z" />
<glyph unicode="&#xaf;" d="M193 1079v113h352v-113h-352z" />
<glyph unicode="&#xb0;" horiz-adv-x="501" d="M55 1139q0 39 15.5 74.5t43 62.5t62.5 42t76 15q39 0 74.5 -15t62.5 -42t42 -62.5t15 -74.5q0 -41 -15 -76t-42 -60.5t-62.5 -41t-74.5 -15.5q-41 0 -76 15.5t-62.5 41t-43 60.5t-15.5 76zM133 1139q0 -51 33 -84t86 -33q51 0 84 33t33 84q0 53 -33 85.5t-84 32.5 q-53 0 -86 -32.5t-33 -85.5z" />
<glyph unicode="&#xb1;" horiz-adv-x="1751" d="M35 821v107h147v69q0 106 30 188.5t82 137.5t125 83t161 28q66 0 113.5 -12.5t82.5 -32.5l-26 -111q-29 16 -77 30.5t-106 14.5q-113 0 -183.5 -83t-70.5 -218v-94h494v65q0 111 33.5 199t93 148.5t141.5 93t178 32.5q88 0 158 -19.5t123 -62.5v-1163q0 -66 35 -107.5 t84 -52.5l-90 -88q-27 8 -55.5 24.5t-51 44.5t-38 69t-15.5 96v1116q-27 16 -67 24.5t-99 8.5q-63 0 -117.5 -23.5t-94.5 -67.5t-63.5 -106.5t-23.5 -140.5v-90h229l-24 -107h-205v-821h-131v821h-494v-821h-131v821h-147z" />
<glyph unicode="&#xb2;" horiz-adv-x="729" d="M76 506v29q219 186 316 317t97 221q0 86 -52 130t-142 44q-106 0 -184 -49l-23 82q35 23 89 36t118 13q141 0 216 -70.5t75 -187.5q0 -102 -85 -228t-233 -255h357v-82h-549z" />
<glyph unicode="&#xb3;" horiz-adv-x="649" d="M76 635q47 -33 97 -45t89 -12q82 0 142.5 49t60.5 137q0 68 -50 113t-118 45q-10 0 -23.5 -1t-23.5 -6l-21 82q74 14 121 56.5t47 85.5q0 49 -34.5 78.5t-96.5 29.5q-35 0 -73.5 -9t-73.5 -28l-23 82q76 37 170 37q104 0 166 -51t62 -139q0 -49 -28 -90t-75 -64 q66 -16 118 -75.5t52 -145.5q0 -57 -20.5 -106.5t-58.5 -85t-94 -56t-126 -20.5q-43 0 -85 10t-75 31z" />
<glyph unicode="&#xb4;" d="M154 1128q104 29 207.5 82.5t179.5 130.5l26 -120q-76 -66 -162 -104t-178 -60z" />
<glyph unicode="&#xb5;" horiz-adv-x="1126" d="M80 0v928h967v-928h-967zM133 51h387q-51 23 -77.5 54.5t-45.5 70.5l-264 572v-697zM184 795l494 -365q-90 -35 -138 -95.5t-48 -113.5q0 -66 29.5 -104.5t76.5 -65.5h395v744h-809z" />
<glyph unicode="&#xb6;" horiz-adv-x="835" d="M96 977q0 84 31 147.5t83 106.5t120.5 64.5t142.5 21.5h291v-109h-137v-1314q0 -72 -20.5 -133.5t-54.5 -108.5t-79 -79t-96 -44l-84 82q98 23 150.5 94.5t52.5 198.5v737h-25q-74 0 -141.5 21.5t-119.5 63.5t-83 104.5t-31 146.5z" />
<glyph unicode="&#xb7;" horiz-adv-x="382" d="M92 555q0 12 10.5 31.5t24.5 37t31.5 30t29.5 12.5t30 -12.5t32 -30t24.5 -37t10.5 -31.5q0 -14 -10.5 -33.5t-24.5 -37t-31.5 -30t-30.5 -12.5q-12 0 -29.5 12.5t-31.5 30t-24.5 37t-10.5 33.5z" />
<glyph unicode="&#xb8;" d="M195 -412l18 78q35 -27 67.5 -36t69.5 -9q43 0 80 28.5t37 84.5q0 59 -40 86.5t-87 27.5h-22.5t-24.5 -4l39 160h63l-18 -72q33 -2 65.5 -15t59 -38.5t44 -60.5t17.5 -80q0 -49 -19.5 -87t-50 -62.5t-68.5 -37t-77 -12.5q-84 0 -153 49z" />
<glyph unicode="&#xb9;" horiz-adv-x="524" d="M84 1221l22 88l238 20v-821h-96v725z" />
<glyph unicode="&#xba;" horiz-adv-x="931" d="M72 942q0 84 29.5 155.5t83 123t126 80t156.5 28.5t155.5 -28.5t125 -80t83 -123t29.5 -155.5t-29.5 -155.5t-83 -123t-125 -80t-155.5 -28.5t-156.5 28.5t-126 80t-83 123t-29.5 155.5zM186 942q0 -63 21.5 -116.5t60.5 -92.5t89.5 -60.5t109.5 -21.5q57 0 108.5 21.5 t89 60.5t59 92.5t21.5 116.5t-21.5 116.5t-59 92.5t-89 60.5t-108.5 21.5q-59 0 -109.5 -21.5t-89.5 -60.5t-60.5 -92t-21.5 -117zM383 309q0 12 9 30.5t21.5 35t27 28t26.5 11.5t26.5 -11.5t28 -28t21.5 -35t8 -30.5t-8 -29.5t-21.5 -34t-28 -27.5t-26.5 -11t-26.5 11 t-27 27.5t-21.5 34t-9 29.5z" />
<glyph unicode="&#xbb;" horiz-adv-x="849" d="M51 295q37 78 95.5 148.5t123.5 123.5q-66 53 -124 124t-95 149l74 73q53 -96 138.5 -187t189.5 -159q-104 -66 -189.5 -158t-138.5 -188zM440 295q37 78 94.5 148.5t122.5 123.5q-66 53 -123 124t-94 149l74 73q53 -96 139.5 -187t188.5 -159q-102 -66 -188.5 -158 t-139.5 -188z" />
<glyph unicode="&#xbc;" horiz-adv-x="1474" d="M84 1221l22 88l238 20v-821h-96v725zM133 16l1067 1319l53 -47l-1065 -1317zM772 317l397 496h80v-494h111v-81h-111v-238h-96v238h-358zM881 319h272v240q0 57 6 119l-4 2q-20 -31 -41.5 -61.5t-46.5 -61.5z" />
<glyph unicode="&#xbd;" horiz-adv-x="1605" d="M84 1221l22 88l238 20v-821h-96v725zM133 18l1067 1317l53 -47l-1065 -1317zM954 0v27q217 186 315.5 318t98.5 222q0 86 -52 130t-145 44q-53 0 -99 -13t-85 -36l-22 80q37 23 91 37t115 14q141 0 216 -70.5t75 -189.5q0 -100 -84 -226t-231 -255h354v-82h-547z" />
<glyph unicode="&#xbe;" horiz-adv-x="1562" d="M76 635q47 -33 97 -45t89 -12q82 0 142.5 49t60.5 137q0 68 -50 113t-118 45q-10 0 -23.5 -1t-23.5 -6l-21 82q74 14 121 56.5t47 85.5q0 49 -34.5 78.5t-96.5 29.5q-35 0 -73.5 -9t-73.5 -28l-23 82q76 37 170 37q104 0 166 -51t62 -139q0 -49 -28 -90t-75 -64 q66 -16 118 -75.5t52 -145.5q0 -57 -20.5 -106.5t-58.5 -85t-94 -56t-126 -20.5q-43 0 -85 10t-75 31zM240 16l1069 1319l53 -47l-1065 -1317zM881 317l397 496h80v-494h110v-81h-110v-238h-96v238h-361zM989 319h273v240q0 57 6 119l-4 2q-20 -31 -42 -61.5t-46 -61.5z" />
<glyph unicode="&#xbf;" horiz-adv-x="784" d="M82 242q0 104 56.5 188t135.5 168q59 61 87 125.5t28 138.5q0 35 -2 70t-8 61l110 -28q6 -25 11.5 -55.5t5.5 -63.5q0 -98 -36 -182t-99 -150q-66 -66 -110 -131.5t-44 -155.5q0 -43 16.5 -83t47 -69.5t74.5 -48t98 -18.5q80 0 140 29t107 76l29 -121q-45 -43 -114.5 -72 t-159.5 -29q-80 0 -148.5 24t-119 69t-78 110.5t-27.5 147.5zM332 1217q0 14 10 33.5t24.5 37t31 29.5t30.5 12q12 0 29.5 -12t32 -29.5t24.5 -37t10 -33.5q0 -12 -10 -32t-24.5 -37.5t-32 -29.5t-29.5 -12q-14 0 -30.5 12t-31 29.5t-24.5 37t-10 32.5z" />
<glyph unicode="&#xc0;" horiz-adv-x="1230" d="M53 0l541 1333h43l541 -1333h-140l-149 367h-553l-148 -367h-135zM330 1631l26 120q76 -78 179.5 -131t207.5 -82l-73 -71q-92 23 -178.5 60.5t-161.5 103.5zM383 479h459l-156 402q-18 45 -35.5 96t-34.5 104h-4q-16 -53 -34.5 -104t-36.5 -96z" />
<glyph unicode="&#xc1;" horiz-adv-x="1230" d="M53 0l541 1333h43l541 -1333h-140l-149 367h-553l-148 -367h-135zM383 479h459l-156 402q-18 45 -35.5 96t-34.5 104h-4q-16 -53 -34.5 -104t-36.5 -96zM480 1538q104 29 207.5 82.5t179.5 130.5l26 -120q-76 -66 -162 -104t-178 -60z" />
<glyph unicode="&#xc2;" horiz-adv-x="1230" d="M53 0l541 1333h43l541 -1333h-140l-149 367h-553l-148 -367h-135zM350 1536q78 35 145.5 95.5t121.5 132.5q51 -72 118.5 -132.5t147.5 -95.5l-72 -69q-59 29 -106 61.5t-88 79.5q-41 -47 -89.5 -80t-107.5 -61zM383 479h459l-156 402q-18 45 -35.5 96t-34.5 104h-4 q-16 -53 -34.5 -104t-36.5 -96z" />
<glyph unicode="&#xc3;" horiz-adv-x="1230" d="M53 0l541 1333h43l541 -1333h-140l-149 367h-553l-148 -367h-135zM324 1491l22 107q61 39 132 66.5t147 31.5l33 -115q59 4 121.5 31t115.5 60l-22 -105q-59 -43 -130 -68.5t-149 -29.5l-32 112q-57 -4 -121 -29.5t-117 -60.5zM383 479h459l-156 402q-18 45 -35.5 96 t-34.5 104h-4q-16 -53 -34.5 -104t-36.5 -96z" />
<glyph unicode="&#xc4;" horiz-adv-x="1230" d="M53 0l541 1333h43l541 -1333h-140l-149 367h-553l-148 -367h-135zM383 479h459l-156 402q-18 45 -35.5 96t-34.5 104h-4q-16 -53 -34.5 -104t-36.5 -96zM391 1569q0 12 9.5 30.5t22.5 35t28.5 28t25.5 11.5q12 0 27.5 -11.5t28 -28t21.5 -35t9 -30.5t-9 -29.5t-21.5 -34 t-27.5 -27.5t-28 -11q-10 0 -25.5 11t-28.5 27.5t-22.5 34t-9.5 29.5zM674 1569q0 12 9 30.5t21.5 35t28 28t27.5 11.5t26.5 -11.5t28 -28t21.5 -35t8 -30.5t-8 -29.5t-21.5 -34t-28 -27.5t-26.5 -11t-27.5 11t-28 27.5t-21.5 34t-9 29.5z" />
<glyph unicode="&#xc5;" horiz-adv-x="1230" d="M53 0l541 1333h43l541 -1333h-140l-149 367h-553l-148 -367h-135zM383 479h459l-156 402q-18 45 -35.5 96t-34.5 104h-4q-16 -53 -34.5 -104t-36.5 -96zM410 1653q0 43 16.5 80t45 64.5t65.5 44t80 16.5t79.5 -16.5t65.5 -44t45 -64.5t16 -80t-16 -81t-45 -65.5 t-65.5 -44t-79.5 -16.5t-80 16.5t-65.5 44t-45 65.5t-16.5 81zM494 1653q0 -53 34.5 -88t88.5 -35q53 0 88 35t35 88t-35 87t-88 34t-88 -34t-35 -87z" />
<glyph unicode="&#xc6;" horiz-adv-x="1638" d="M41 0l758 1307h729v-119h-543v-471h445v-119h-445v-479h614v-119h-751v377h-449l-219 -377h-139zM459 489h389v463v118t2 114l-4 2q-29 -59 -59.5 -119.5t-63.5 -118.5z" />
<glyph unicode="&#xc7;" horiz-adv-x="1224" d="M86 653q0 160 59.5 285t156.5 212t222 133t254 46q127 0 223.5 -24.5t161.5 -63.5l-26 -121q-57 37 -148.5 63.5t-195.5 26.5q-111 0 -213.5 -37.5t-181.5 -110.5t-126 -176.5t-47 -232.5t46 -231.5t125 -175t181.5 -110.5t215.5 -38q227 0 368 88l-33 -139 q-61 -35 -142 -51t-204 -19l-12 -45q33 -2 65.5 -15t59.5 -38.5t44 -60.5t17 -80q0 -49 -19 -87t-50 -62.5t-69 -37t-77 -12.5q-84 0 -153 49l18 78q35 -27 68 -36t69 -9q43 0 80 28.5t37 84.5q0 59 -40 86.5t-87 27.5h-22.5t-24.5 -4l33 136q-125 10 -239.5 61t-202 138 t-139.5 207t-52 267z" />
<glyph unicode="&#xc8;" horiz-adv-x="940" d="M141 0v1307h682v-119h-544v-471h446v-119h-446v-479h616v-119h-754zM215 1631l26 120q76 -78 179.5 -131t207.5 -82l-73 -71q-92 23 -178.5 60.5t-161.5 103.5z" />
<glyph unicode="&#xc9;" horiz-adv-x="940" d="M141 0v1307h682v-119h-544v-471h446v-119h-446v-479h616v-119h-754zM365 1538q104 29 207.5 82.5t179.5 130.5l26 -120q-76 -66 -162 -104t-178 -60z" />
<glyph unicode="&#xca;" horiz-adv-x="940" d="M141 0v1307h682v-119h-544v-471h446v-119h-446v-479h616v-119h-754zM235 1536q78 35 145.5 95.5t121.5 132.5q51 -72 118.5 -132.5t147.5 -95.5l-72 -69q-59 29 -106 61.5t-88 79.5q-41 -47 -89.5 -80t-107.5 -61z" />
<glyph unicode="&#xcb;" horiz-adv-x="940" d="M141 0v1307h682v-119h-544v-471h446v-119h-446v-479h616v-119h-754zM274 1569q0 12 9.5 30.5t22.5 35t28.5 28t25.5 11.5q12 0 27.5 -11.5t28 -28t21.5 -35t9 -30.5t-9 -29.5t-21.5 -34t-27.5 -27.5t-28 -11q-10 0 -25.5 11t-28.5 27.5t-22.5 34t-9.5 29.5zM557 1569 q0 12 9 30.5t21.5 35t28 28t27.5 11.5t26.5 -11.5t28 -28t21.5 -35t8 -30.5t-8 -29.5t-21.5 -34t-28 -27.5t-26.5 -11t-27.5 11t-28 27.5t-21.5 34t-9 29.5z" />
<glyph unicode="&#xcc;" horiz-adv-x="489" d="M2 1631l26 120q76 -78 179.5 -131t207.5 -82l-73 -71q-92 23 -178.5 60.5t-161.5 103.5zM176 0v1307h137v-1307h-137z" />
<glyph unicode="&#xcd;" horiz-adv-x="489" d="M78 1538q104 29 207.5 82.5t179.5 130.5l26 -120q-76 -66 -162 -104t-178 -60zM176 0v1307h137v-1307h-137z" />
<glyph unicode="&#xce;" horiz-adv-x="489" d="M-19 1536q78 35 145.5 95.5t121.5 132.5q51 -72 118.5 -132.5t147.5 -95.5l-72 -69q-59 29 -106 61.5t-88 79.5q-41 -47 -89.5 -80t-107.5 -61zM176 0v1307h137v-1307h-137z" />
<glyph unicode="&#xcf;" horiz-adv-x="489" d="M22 1569q0 12 9.5 30.5t22.5 35t28.5 28t25.5 11.5q12 0 27.5 -11.5t28 -28t21.5 -35t9 -30.5t-9 -29.5t-21.5 -34t-27.5 -27.5t-28 -11q-10 0 -25.5 11t-28.5 27.5t-22.5 34t-9.5 29.5zM176 0v1307h137v-1307h-137zM305 1569q0 12 9 30.5t21.5 35t28 28t27.5 11.5 t26.5 -11.5t28 -28t21.5 -35t8 -30.5t-8 -29.5t-21.5 -34t-28 -27.5t-26.5 -11t-27.5 11t-28 27.5t-21.5 34t-9 29.5z" />
<glyph unicode="&#xd0;" horiz-adv-x="1327" d="M2 610v107h170v590h342q147 0 279.5 -44t230.5 -127t155.5 -205t57.5 -278t-57.5 -277.5t-155.5 -204.5t-230 -127t-280 -44h-342v610h-170zM309 119h183q129 0 240.5 34.5t192.5 102.5t127 167t46 230t-46 230.5t-127 167t-192.5 102.5t-240.5 35h-183v-471h287 l-25 -107h-262v-491z" />
<glyph unicode="&#xd1;" horiz-adv-x="1419" d="M141 0v1307h97l606 -695q68 -78 149.5 -174t147.5 -176l4 2q-4 88 -4 175v171v697h137v-1336h-37l-643 738q-84 96 -168 195.5t-151 180.5l-5 -2q4 -92 4.5 -182t0.5 -180v-721h-138zM422 1491l22 107q61 39 132 66.5t147 31.5l33 -115q59 4 121.5 31t115.5 60l-22 -105 q-59 -43 -130 -68.5t-149 -29.5l-32 112q-57 -4 -121 -29.5t-117 -60.5z" />
<glyph unicode="&#xd2;" horiz-adv-x="1540" d="M86 655q0 152 56.5 276t150.5 213t218 137t259 48t259 -48t218 -137t150.5 -213t56.5 -276q0 -154 -56.5 -278.5t-150.5 -213.5t-218 -137.5t-259 -48.5t-259 48.5t-218 137.5t-150.5 214t-56.5 278zM225 655q0 -127 45 -229t120 -175t173.5 -113t206.5 -40 q106 0 204.5 40t174.5 113t121 175t45 229q0 125 -45 228.5t-121 175t-174 111.5t-205 40q-109 0 -207 -40t-173 -111.5t-120 -175t-45 -228.5zM467 1631l26 120q76 -78 179.5 -131t207.5 -82l-73 -71q-92 23 -178.5 60.5t-161.5 103.5z" />
<glyph unicode="&#xd3;" horiz-adv-x="1540" d="M86 655q0 152 56.5 276t150.5 213t218 137t259 48t259 -48t218 -137t150.5 -213t56.5 -276q0 -154 -56.5 -278.5t-150.5 -213.5t-218 -137.5t-259 -48.5t-259 48.5t-218 137.5t-150.5 214t-56.5 278zM225 655q0 -127 45 -229t120 -175t173.5 -113t206.5 -40 q106 0 204.5 40t174.5 113t121 175t45 229q0 125 -45 228.5t-121 175t-174 111.5t-205 40q-109 0 -207 -40t-173 -111.5t-120 -175t-45 -228.5zM629 1538q104 29 207.5 82.5t179.5 130.5l26 -120q-76 -66 -162 -104t-178 -60z" />
<glyph unicode="&#xd4;" horiz-adv-x="1540" d="M86 655q0 152 56.5 276t150.5 213t218 137t259 48t259 -48t218 -137t150.5 -213t56.5 -276q0 -154 -56.5 -278.5t-150.5 -213.5t-218 -137.5t-259 -48.5t-259 48.5t-218 137.5t-150.5 214t-56.5 278zM225 655q0 -127 45 -229t120 -175t173.5 -113t206.5 -40 q106 0 204.5 40t174.5 113t121 175t45 229q0 125 -45 228.5t-121 175t-174 111.5t-205 40q-109 0 -207 -40t-173 -111.5t-120 -175t-45 -228.5zM501 1536q78 35 145.5 95.5t121.5 132.5q51 -72 118.5 -132.5t147.5 -95.5l-72 -69q-59 29 -106 61.5t-88 79.5 q-41 -47 -89.5 -80t-107.5 -61z" />
<glyph unicode="&#xd5;" horiz-adv-x="1540" d="M86 655q0 152 56.5 276t150.5 213t218 137t259 48t259 -48t218 -137t150.5 -213t56.5 -276q0 -154 -56.5 -278.5t-150.5 -213.5t-218 -137.5t-259 -48.5t-259 48.5t-218 137.5t-150.5 214t-56.5 278zM225 655q0 -127 45 -229t120 -175t173.5 -113t206.5 -40 q106 0 204.5 40t174.5 113t121 175t45 229q0 125 -45 228.5t-121 175t-174 111.5t-205 40q-109 0 -207 -40t-173 -111.5t-120 -175t-45 -228.5zM473 1491l22 107q61 39 132 66.5t147 31.5l33 -115q59 4 121.5 31t115.5 60l-22 -105q-59 -43 -130 -68.5t-149 -29.5l-32 112 q-57 -4 -121 -29.5t-117 -60.5z" />
<glyph unicode="&#xd6;" horiz-adv-x="1540" d="M86 655q0 152 56.5 276t150.5 213t218 137t259 48t259 -48t218 -137t150.5 -213t56.5 -276q0 -154 -56.5 -278.5t-150.5 -213.5t-218 -137.5t-259 -48.5t-259 48.5t-218 137.5t-150.5 214t-56.5 278zM225 655q0 -127 45 -229t120 -175t173.5 -113t206.5 -40 q106 0 204.5 40t174.5 113t121 175t45 229q0 125 -45 228.5t-121 175t-174 111.5t-205 40q-109 0 -207 -40t-173 -111.5t-120 -175t-45 -228.5zM540 1569q0 12 9.5 30.5t22.5 35t28.5 28t25.5 11.5q12 0 27.5 -11.5t28 -28t21.5 -35t9 -30.5t-9 -29.5t-21.5 -34t-27.5 -27.5 t-28 -11q-10 0 -25.5 11t-28.5 27.5t-22.5 34t-9.5 29.5zM823 1569q0 12 9 30.5t21.5 35t28 28t27.5 11.5t26.5 -11.5t28 -28t21.5 -35t8 -30.5t-8 -29.5t-21.5 -34t-28 -27.5t-26.5 -11t-27.5 11t-28 27.5t-21.5 34t-9 29.5z" />
<glyph unicode="&#xd7;" horiz-adv-x="974" d="M168 299l260 258l-258 258l63 66l259 -260l256 256l63 -64l-256 -256l258 -258l-63 -63l-258 258l-259 -261z" />
<glyph unicode="&#xd8;" horiz-adv-x="1540" d="M86 655q0 152 56.5 276t150.5 213t218 137t259 48q109 0 209 -30.5t186 -88.5l121 150l66 -55l-119 -148q100 -88 160.5 -215t60.5 -287q0 -154 -56.5 -278.5t-150.5 -213.5t-218 -137.5t-259 -48.5q-109 0 -208 31t-185 88l-123 -151l-66 55l121 147 q-102 92 -162.5 220.5t-60.5 287.5zM225 655q0 -127 45 -229t121 -176l694 862q-70 47 -149.5 72.5t-165.5 25.5q-109 0 -207 -40t-173 -111.5t-120 -175t-45 -228.5zM457 197q139 -98 313 -99q106 0 204.5 40t174.5 113t121 175t45 229q0 125 -44 227.5t-120 174.5z" />
<glyph unicode="&#xd9;" horiz-adv-x="1302" d="M141 453v854h138v-842q0 -172 97 -268.5t277 -96.5q178 0 276.5 96.5t98.5 268.5v842h133v-854q0 -111 -37 -199t-104.5 -149.5t-161.5 -94.5t-207 -33q-115 0 -208 33t-160.5 94.5t-104.5 149.5t-37 199zM357 1631l26 120q76 -78 179.5 -131t207.5 -82l-73 -71 q-92 23 -178.5 60.5t-161.5 103.5z" />
<glyph unicode="&#xda;" horiz-adv-x="1302" d="M141 453v854h138v-842q0 -172 97 -268.5t277 -96.5q178 0 276.5 96.5t98.5 268.5v842h133v-854q0 -111 -37 -199t-104.5 -149.5t-161.5 -94.5t-207 -33q-115 0 -208 33t-160.5 94.5t-104.5 149.5t-37 199zM527 1538q104 29 207.5 82.5t179.5 130.5l26 -120 q-76 -66 -162 -104t-178 -60z" />
<glyph unicode="&#xdb;" horiz-adv-x="1302" d="M141 453v854h138v-842q0 -172 97 -268.5t277 -96.5q178 0 276.5 96.5t98.5 268.5v842h133v-854q0 -111 -37 -199t-104.5 -149.5t-161.5 -94.5t-207 -33q-115 0 -208 33t-160.5 94.5t-104.5 149.5t-37 199zM387 1536q78 35 145.5 95.5t121.5 132.5q51 -72 118.5 -132.5 t147.5 -95.5l-72 -69q-59 29 -106 61.5t-88 79.5q-41 -47 -89.5 -80t-107.5 -61z" />
<glyph unicode="&#xdc;" horiz-adv-x="1302" d="M141 453v854h138v-842q0 -172 97 -268.5t277 -96.5q178 0 276.5 96.5t98.5 268.5v842h133v-854q0 -111 -37 -199t-104.5 -149.5t-161.5 -94.5t-207 -33q-115 0 -208 33t-160.5 94.5t-104.5 149.5t-37 199zM428 1569q0 12 9.5 30.5t22.5 35t28.5 28t25.5 11.5 q12 0 27.5 -11.5t28 -28t21.5 -35t9 -30.5t-9 -29.5t-21.5 -34t-27.5 -27.5t-28 -11q-10 0 -25.5 11t-28.5 27.5t-22.5 34t-9.5 29.5zM711 1569q0 12 9 30.5t21.5 35t28 28t27.5 11.5t26.5 -11.5t28 -28t21.5 -35t8 -30.5t-8 -29.5t-21.5 -34t-28 -27.5t-26.5 -11t-27.5 11 t-28 27.5t-21.5 34t-9 29.5z" />
<glyph unicode="&#xdd;" horiz-adv-x="1183" d="M25 1307h151l283 -400q31 -45 67.5 -98t67.5 -100h4q31 47 65.5 99t69.5 99l285 400h141l-502 -703v-604h-135v604zM455 1538q104 29 207.5 82.5t179.5 130.5l26 -120q-76 -66 -162 -104t-178 -60z" />
<glyph unicode="&#xde;" horiz-adv-x="925" d="M141 0v1311h138v-156h227q74 0 143.5 -23.5t122.5 -69.5t85 -111.5t32 -149.5t-32 -149.5t-84 -111.5t-119.5 -70t-139.5 -24h-235v-446h-138zM279 565h213q51 0 98 15.5t82 46t56.5 75t21.5 99.5t-21.5 99t-57.5 74t-84 46t-104 16h-204v-471z" />
<glyph unicode="&#xdf;" horiz-adv-x="1071" d="M141 0v995q0 238 101.5 354.5t271.5 116.5q84 0 151.5 -29.5t115.5 -83t75 -131t27 -171.5q0 -49 -11.5 -104.5t-23.5 -92.5q-139 0 -214 -36t-75 -111q0 -61 42 -98.5t120 -65.5q133 -47 208 -116.5t75 -184.5q0 -117 -85 -189.5t-233 -72.5q-86 0 -154.5 22.5 t-109.5 52.5v129q53 -41 116.5 -67.5t149.5 -26.5q78 0 132 39t54 107q0 66 -47 107.5t-125 70.5q-129 47 -198.5 112.5t-69.5 175.5q0 113 85 180.5t216 67.5q8 23 13.5 55.5t5.5 61.5q0 51 -14.5 102.5t-44 93.5t-75 67.5t-106.5 25.5t-107.5 -25.5t-77 -71t-45 -105.5 t-14.5 -128v-1026h-129z" />
<glyph unicode="&#xe0;" horiz-adv-x="913" d="M76 252q0 68 24.5 119t66.5 87t95 55t111 26l248 24v88q0 86 -57.5 135.5t-162.5 49.5q-66 0 -132 -19.5t-113 -50.5l-27 108q53 37 127 55.5t152 18.5q74 0 137 -20.5t109 -59.5t72 -97t26 -132v-424q0 -70 34.5 -106.5t79.5 -45.5l-84 -83q-47 10 -88 49t-51 92 q-37 -66 -110.5 -103.5t-159.5 -37.5q-66 0 -120 21.5t-94 58t-61.5 86t-21.5 106.5zM176 1225l23 104q66 -66 153.5 -112t175.5 -70l-63 -62q-78 20 -150.5 53t-138.5 87zM201 252q0 -70 51 -116t125 -46q41 0 84 17.5t78.5 48t58.5 74.5t23 100v125l-228 -21 q-90 -8 -141 -57t-51 -125z" />
<glyph unicode="&#xe1;" horiz-adv-x="913" d="M76 252q0 68 24.5 119t66.5 87t95 55t111 26l248 24v88q0 86 -57.5 135.5t-162.5 49.5q-66 0 -132 -19.5t-113 -50.5l-27 108q53 37 127 55.5t152 18.5q74 0 137 -20.5t109 -59.5t72 -97t26 -132v-424q0 -70 34.5 -106.5t79.5 -45.5l-84 -83q-47 10 -88 49t-51 92 q-37 -66 -110.5 -103.5t-159.5 -37.5q-66 0 -120 21.5t-94 58t-61.5 86t-21.5 106.5zM201 252q0 -70 51 -116t125 -46q41 0 84 17.5t78.5 48t58.5 74.5t23 100v125l-228 -21q-90 -8 -141 -57t-51 -125zM279 1147q88 25 176 71t153 111l23 -104q-66 -53 -138.5 -86 t-150.5 -54z" />
<glyph unicode="&#xe2;" horiz-adv-x="913" d="M76 252q0 68 24.5 119t66.5 87t95 55t111 26l248 24v88q0 86 -57.5 135.5t-162.5 49.5q-66 0 -132 -19.5t-113 -50.5l-27 108q53 37 127 55.5t152 18.5q74 0 137 -20.5t109 -59.5t72 -97t26 -132v-424q0 -70 34.5 -106.5t79.5 -45.5l-84 -83q-47 10 -88 49t-51 92 q-37 -66 -110.5 -103.5t-159.5 -37.5q-66 0 -120 21.5t-94 58t-61.5 86t-21.5 106.5zM188 1145q68 31 125.5 82t102.5 112q43 -61 100 -112t125 -82l-59 -58q-51 23 -91 50.5t-75 68.5q-35 -41 -76 -68.5t-92 -50.5zM201 252q0 -70 51 -116t125 -46q41 0 84 17.5t78.5 48 t58.5 74.5t23 100v125l-228 -21q-90 -8 -141 -57t-51 -125z" />
<glyph unicode="&#xe3;" horiz-adv-x="913" d="M76 252q0 68 24.5 119t66.5 87t95 55t111 26l248 24v88q0 86 -57.5 135.5t-162.5 49.5q-66 0 -132 -19.5t-113 -50.5l-27 108q53 37 127 55.5t152 18.5q74 0 137 -20.5t109 -59.5t72 -97t26 -132v-424q0 -70 34.5 -106.5t79.5 -45.5l-84 -83q-47 10 -88 49t-51 92 q-37 -66 -110.5 -103.5t-159.5 -37.5q-66 0 -120 21.5t-94 58t-61.5 86t-21.5 106.5zM193 1108l20 90q53 33 112.5 56.5t123.5 27.5l28 -98q49 4 103.5 26.5t99.5 51.5l-21 -91q-51 -37 -110.5 -58t-124.5 -26l-29 97q-47 -4 -102 -25.5t-100 -50.5zM201 252q0 -70 51 -116 t125 -46q41 0 84 17.5t78.5 48t58.5 74.5t23 100v125l-228 -21q-90 -8 -141 -57t-51 -125z" />
<glyph unicode="&#xe4;" horiz-adv-x="913" d="M76 252q0 68 24.5 119t66.5 87t95 55t111 26l248 24v88q0 86 -57.5 135.5t-162.5 49.5q-66 0 -132 -19.5t-113 -50.5l-27 108q53 37 127 55.5t152 18.5q74 0 137 -20.5t109 -59.5t72 -97t26 -132v-424q0 -70 34.5 -106.5t79.5 -45.5l-84 -83q-47 10 -88 49t-51 92 q-37 -66 -110.5 -103.5t-159.5 -37.5q-66 0 -120 21.5t-94 58t-61.5 86t-21.5 106.5zM201 252q0 -70 51 -116t125 -46q41 0 84 17.5t78.5 48t58.5 74.5t23 100v125l-228 -21q-90 -8 -141 -57t-51 -125zM227 1174q0 12 8.5 26t19.5 28.5t23.5 24t22.5 9.5t23.5 -9.5t24.5 -24 t18.5 -28.5t7.5 -26q0 -10 -7.5 -25.5t-18.5 -29t-24.5 -23t-23.5 -9.5t-22.5 9.5t-23.5 23t-19.5 28.5t-8.5 26zM469 1174q0 12 7 26t18.5 28.5t23.5 24t23 9.5q10 0 22 -9.5t23.5 -24t18.5 -28.5t7 -26q0 -10 -7 -25.5t-18.5 -29t-23.5 -23t-22 -9.5t-22.5 9.5t-24 23 t-18.5 28.5t-7 26z" />
<glyph unicode="&#xe5;" horiz-adv-x="913" d="M76 252q0 68 24.5 119t66.5 87t95 55t111 26l248 24v88q0 86 -57.5 135.5t-162.5 49.5q-66 0 -132 -19.5t-113 -50.5l-27 108q53 37 127 55.5t152 18.5q74 0 137 -20.5t109 -59.5t72 -97t26 -132v-424q0 -70 34.5 -106.5t79.5 -45.5l-84 -83q-47 10 -88 49t-51 92 q-37 -66 -110.5 -103.5t-159.5 -37.5q-66 0 -120 21.5t-94 58t-61.5 86t-21.5 106.5zM201 252q0 -70 51 -116t125 -46q41 0 84 17.5t78.5 48t58.5 74.5t23 100v125l-228 -21q-90 -8 -141 -57t-51 -125zM240 1245q0 37 14 69t37.5 55.5t55.5 36.5t67 13q37 0 68.5 -13 t55 -36.5t38 -55.5t14.5 -69t-14.5 -68.5t-38 -56t-55 -38t-68.5 -13.5q-35 0 -67 13.5t-55.5 38t-37.5 56t-14 68.5zM309 1245q0 -45 30 -74.5t75 -29.5t74.5 29.5t29.5 74.5t-29.5 74t-74.5 29t-75 -29t-30 -74z" />
<glyph unicode="&#xe6;" horiz-adv-x="1536" d="M76 254q0 68 24.5 120t66.5 87t97 55.5t119 26.5l238 22v86q0 86 -57.5 135.5t-162.5 49.5q-66 0 -132 -19.5t-113 -50.5l-27 108q53 37 127 55.5t152 18.5q115 0 198.5 -49t112.5 -141q61 90 154.5 140t195.5 50q94 0 168 -29.5t123 -78.5t74.5 -112t25.5 -126 q0 -37 -6 -63l-76 -76h-620q-4 -70 20.5 -136.5t72.5 -117.5t117.5 -83t155.5 -32q84 0 154 21.5t137 70.5l-37 -143q-53 -31 -117.5 -47t-150.5 -16q-129 0 -234.5 57t-170.5 156q-43 -104 -132.5 -158.5t-195.5 -54.5q-68 0 -124 20t-95 57t-60.5 87.5t-21.5 109.5z M201 252q0 -72 51 -117t125 -45q41 0 84 17.5t78.5 48t58.5 74.5t23 100v127l-218 -21q-98 -10 -150 -58t-52 -126zM768 569h559q2 9 2 27q0 41 -16.5 83t-48 77t-78.5 57.5t-111 22.5q-57 0 -108.5 -22.5t-93.5 -59.5t-69.5 -85t-35.5 -100z" />
<glyph unicode="&#xe7;" horiz-adv-x="935" d="M76 463q0 111 40 201t108.5 152.5t158.5 97t190 34.5q90 0 164 -20.5t127 -50.5l-26 -115q-53 35 -120 53.5t-138 18.5q-78 0 -146.5 -27t-119 -76t-79 -117.5t-28.5 -150.5t29.5 -149.5t80 -117t119 -76t148.5 -26.5q72 0 136 15.5t136 52.5l-33 -131 q-51 -29 -123.5 -41.5t-132.5 -9.5l-10 -39q27 0 55.5 -12.5t51 -33t37 -51t14.5 -67.5q0 -43 -16.5 -75t-42 -52.5t-57.5 -30.5t-64 -10q-74 0 -134 41l17 65q31 -23 58.5 -30t58.5 -7q37 0 68.5 25t31.5 72t-34 71.5t-73 24.5q-10 0 -21 1t-22 -3l29 115q-90 10 -170 48 t-139.5 99.5t-94 145t-34.5 186.5z" />
<glyph unicode="&#xe8;" horiz-adv-x="989" d="M76 463q0 113 39 202t102.5 152.5t143 97t163.5 33.5q94 0 167 -29.5t122 -78.5t74.5 -112t25.5 -126v-32.5t-4 -30.5l-78 -76h-620q-4 -70 20.5 -136.5t73.5 -117.5t119 -83t156 -32q84 0 153.5 21.5t136.5 70.5l-36 -143q-53 -31 -118 -47t-151 -16q-100 0 -189 35.5 t-155.5 99t-105.5 152.5t-39 196zM221 569h561q2 9 2 27q0 41 -16 83t-48 77t-79 57.5t-111 22.5q-57 0 -109 -22.5t-93 -59.5t-70 -85t-37 -100zM305 1225l23 104q66 -66 153.5 -112t175.5 -70l-63 -62q-78 20 -150.5 53t-138.5 87z" />
<glyph unicode="&#xe9;" horiz-adv-x="989" d="M76 463q0 113 39 202t102.5 152.5t143 97t163.5 33.5q94 0 167 -29.5t122 -78.5t74.5 -112t25.5 -126v-32.5t-4 -30.5l-78 -76h-620q-4 -70 20.5 -136.5t73.5 -117.5t119 -83t156 -32q84 0 153.5 21.5t136.5 70.5l-36 -143q-53 -31 -118 -47t-151 -16q-100 0 -189 35.5 t-155.5 99t-105.5 152.5t-39 196zM221 569h561q2 9 2 27q0 41 -16 83t-48 77t-79 57.5t-111 22.5q-57 0 -109 -22.5t-93 -59.5t-70 -85t-37 -100zM406 1147q88 25 176 71t153 111l23 -104q-66 -53 -138.5 -86t-150.5 -54z" />
<glyph unicode="&#xea;" horiz-adv-x="989" d="M76 463q0 113 39 202t102.5 152.5t143 97t163.5 33.5q94 0 167 -29.5t122 -78.5t74.5 -112t25.5 -126v-32.5t-4 -30.5l-78 -76h-620q-4 -70 20.5 -136.5t73.5 -117.5t119 -83t156 -32q84 0 153.5 21.5t136.5 70.5l-36 -143q-53 -31 -118 -47t-151 -16q-100 0 -189 35.5 t-155.5 99t-105.5 152.5t-39 196zM221 569h561q2 9 2 27q0 41 -16 83t-48 77t-79 57.5t-111 22.5q-57 0 -109 -22.5t-93 -59.5t-70 -85t-37 -100zM307 1145q66 31 124 82t104 112q43 -61 100 -112t125 -82l-62 -58q-49 23 -89 50.5t-74 68.5q-35 -41 -77 -68.5t-91 -50.5z " />
<glyph unicode="&#xeb;" horiz-adv-x="989" d="M76 463q0 113 39 202t102.5 152.5t143 97t163.5 33.5q94 0 167 -29.5t122 -78.5t74.5 -112t25.5 -126v-32.5t-4 -30.5l-78 -76h-620q-4 -70 20.5 -136.5t73.5 -117.5t119 -83t156 -32q84 0 153.5 21.5t136.5 70.5l-36 -143q-53 -31 -118 -47t-151 -16q-100 0 -189 35.5 t-155.5 99t-105.5 152.5t-39 196zM221 569h561q2 9 2 27q0 41 -16 83t-48 77t-79 57.5t-111 22.5q-57 0 -109 -22.5t-93 -59.5t-70 -85t-37 -100zM334 1174q0 12 8 26t19.5 28.5t23.5 24t23 9.5q10 0 22 -9.5t23.5 -24t18.5 -28.5t7 -26q0 -10 -7 -25.5t-18.5 -29t-23.5 -23 t-22 -9.5t-22.5 9.5t-24 23t-19.5 28.5t-8 26zM573 1174q0 12 7.5 26t18.5 28.5t24.5 24t23.5 9.5t22.5 -9.5t24 -24t18.5 -28.5t7 -26q0 -10 -7 -25.5t-18.5 -29t-24 -23t-22.5 -9.5t-23.5 9.5t-24.5 23t-18.5 28.5t-7.5 26z" />
<glyph unicode="&#xec;" horiz-adv-x="471" d="M0 1225l23 104q66 -66 153.5 -112t175.5 -70l-63 -62q-78 20 -150.5 53t-138.5 87zM170 0v928h131v-928h-131z" />
<glyph unicode="&#xed;" horiz-adv-x="471" d="M119 1147q88 25 176 71t154 111l22 -104q-66 -53 -138.5 -86t-150.5 -54zM170 0v928h131v-928h-131z" />
<glyph unicode="&#xee;" horiz-adv-x="471" d="M8 1145q68 31 125 82t103 112q43 -61 100 -112t125 -82l-60 -58q-51 23 -91 50.5t-74 68.5q-35 -41 -76 -68.5t-92 -50.5zM170 0v928h131v-928h-131z" />
<glyph unicode="&#xef;" horiz-adv-x="471" d="M41 1174q0 12 8 26t19.5 28.5t23.5 24t23 9.5q10 0 23.5 -9.5t24.5 -24t18 -28.5t7 -26q0 -10 -7 -25.5t-18 -29t-24.5 -23t-23.5 -9.5t-22.5 9.5t-24 23t-19.5 28.5t-8 26zM170 0v928h131v-928h-131zM283 1174q0 12 7 26t18 28.5t23.5 24t22.5 9.5t22.5 -9.5t24 -24 t18.5 -28.5t7 -26q0 -10 -7 -25.5t-18.5 -29t-23.5 -23t-23 -9.5q-10 0 -22.5 9.5t-23.5 23t-18 28.5t-7 26z" />
<glyph unicode="&#xf0;" horiz-adv-x="1007" d="M78 397q0 150 86 256.5t219 153.5q57 20 138 37.5t141 23.5l-134 297l-184 -75l-33 73l183 76l-99 219h109l80 -180l164 68l32 -76l-164 -68l232 -512q14 -31 26.5 -65.5t22.5 -70.5t16.5 -68.5t6.5 -57.5q0 -113 -35 -197t-93.5 -140t-136 -85t-163.5 -29q-88 0 -164 32 t-131.5 88.5t-87 133t-31.5 166.5zM180 397q0 -74 24.5 -134t65.5 -103t97.5 -67.5t121.5 -24.5q63 0 123 23.5t106 68.5t73.5 112.5t27.5 155.5q0 33 -11 77t-27.5 91t-38 95t-42.5 91q-29 -2 -64.5 -7t-72.5 -12t-71.5 -16.5t-61.5 -19.5q-250 -98 -250 -330z" />
<glyph unicode="&#xf1;" horiz-adv-x="1019" d="M121 0v928h117l4 -113q37 53 108.5 93t194.5 40q76 0 140.5 -22.5t112.5 -63.5t74.5 -101.5t26.5 -135.5v-625h-129v612q0 98 -65.5 161t-190.5 63q-121 0 -192.5 -62.5t-71.5 -161.5v-612h-129zM258 1108l18 90q53 33 113 56.5t125 27.5l27 -98q51 4 104 26.5t98 51.5 l-18 -91q-53 -37 -112.5 -58t-125.5 -26l-28 97q-47 -4 -101.5 -25.5t-99.5 -50.5z" />
<glyph unicode="&#xf2;" horiz-adv-x="1128" d="M76 463q0 106 38 195.5t103.5 154t154.5 100t193 35.5t193.5 -35.5t155 -100t102.5 -154t37 -195.5t-37 -194.5t-102.5 -153t-154.5 -100t-194 -35.5q-104 0 -193 35.5t-154.5 100t-103.5 152.5t-38 195zM207 463q0 -82 27.5 -149.5t75.5 -117t113.5 -76t141.5 -26.5 q74 0 138.5 26.5t113.5 76t77 117t28 149.5t-28 149.5t-77 116.5t-113.5 77t-138.5 28q-76 0 -141.5 -28t-113.5 -77t-75.5 -116.5t-27.5 -149.5zM322 1225l22 104q66 -66 154 -112t176 -70l-64 -62q-78 20 -150.5 53t-137.5 87z" />
<glyph unicode="&#xf3;" horiz-adv-x="1128" d="M76 463q0 106 38 195.5t103.5 154t154.5 100t193 35.5t193.5 -35.5t155 -100t102.5 -154t37 -195.5t-37 -194.5t-102.5 -153t-154.5 -100t-194 -35.5q-104 0 -193 35.5t-154.5 100t-103.5 152.5t-38 195zM207 463q0 -82 27.5 -149.5t75.5 -117t113.5 -76t141.5 -26.5 q74 0 138.5 26.5t113.5 76t77 117t28 149.5t-28 149.5t-77 116.5t-113.5 77t-138.5 28q-76 0 -141.5 -28t-113.5 -77t-75.5 -116.5t-27.5 -149.5zM457 1147q88 25 176 71t153 111l23 -104q-66 -53 -138.5 -86t-150.5 -54z" />
<glyph unicode="&#xf4;" horiz-adv-x="1128" d="M76 463q0 106 38 195.5t103.5 154t154.5 100t193 35.5t193.5 -35.5t155 -100t102.5 -154t37 -195.5t-37 -194.5t-102.5 -153t-154.5 -100t-194 -35.5q-104 0 -193 35.5t-154.5 100t-103.5 152.5t-38 195zM207 463q0 -82 27.5 -149.5t75.5 -117t113.5 -76t141.5 -26.5 q74 0 138.5 26.5t113.5 76t77 117t28 149.5t-28 149.5t-77 116.5t-113.5 77t-138.5 28q-76 0 -141.5 -28t-113.5 -77t-75.5 -116.5t-27.5 -149.5zM338 1145q68 31 125 82t102 112q43 -61 100.5 -112t125.5 -82l-60 -58q-51 23 -91 50.5t-75 68.5q-35 -41 -77 -68.5 t-91 -50.5z" />
<glyph unicode="&#xf5;" horiz-adv-x="1128" d="M76 463q0 106 38 195.5t103.5 154t154.5 100t193 35.5t193.5 -35.5t155 -100t102.5 -154t37 -195.5t-37 -194.5t-102.5 -153t-154.5 -100t-194 -35.5q-104 0 -193 35.5t-154.5 100t-103.5 152.5t-38 195zM207 463q0 -82 27.5 -149.5t75.5 -117t113.5 -76t141.5 -26.5 q74 0 138.5 26.5t113.5 76t77 117t28 149.5t-28 149.5t-77 116.5t-113.5 77t-138.5 28q-76 0 -141.5 -28t-113.5 -77t-75.5 -116.5t-27.5 -149.5zM319 1108l21 90q53 33 112.5 56.5t122.5 27.5l29 -98q49 4 102.5 26.5t98.5 51.5l-19 -91q-51 -37 -111.5 -58t-125.5 -26 l-27 97q-49 -4 -103 -25.5t-100 -50.5z" />
<glyph unicode="&#xf6;" horiz-adv-x="1128" d="M76 463q0 106 38 195.5t103.5 154t154.5 100t193 35.5t193.5 -35.5t155 -100t102.5 -154t37 -195.5t-37 -194.5t-102.5 -153t-154.5 -100t-194 -35.5q-104 0 -193 35.5t-154.5 100t-103.5 152.5t-38 195zM207 463q0 -82 27.5 -149.5t75.5 -117t113.5 -76t141.5 -26.5 q74 0 138.5 26.5t113.5 76t77 117t28 149.5t-28 149.5t-77 116.5t-113.5 77t-138.5 28q-76 0 -141.5 -28t-113.5 -77t-75.5 -116.5t-27.5 -149.5zM375 1174q0 12 8 26t18.5 28.5t22.5 24t22 9.5t23.5 -9.5t25 -24t18.5 -28.5t7 -26q0 -10 -7 -25.5t-18.5 -29t-24.5 -23 t-24 -9.5q-10 0 -22 9.5t-22.5 23t-18.5 28.5t-8 26zM614 1174q0 12 7.5 26t18.5 28.5t24.5 24t23.5 9.5t22.5 -9.5t22.5 -24t17.5 -28.5t7.5 -26q0 -10 -7.5 -25.5t-17.5 -29t-22.5 -23t-22.5 -9.5t-23.5 9.5t-24.5 23t-18.5 28.5t-7.5 26z" />
<glyph unicode="&#xf7;" horiz-adv-x="948" d="M90 512v111h766v-111h-766zM389 319q0 12 8.5 31t21.5 34t27.5 26.5t26.5 11.5t26.5 -11.5t28 -26.5t21.5 -34t8 -31t-8 -30.5t-21.5 -33.5t-28 -26.5t-26.5 -11.5t-26.5 11.5t-27.5 26.5t-21.5 33.5t-8.5 30.5zM389 817q0 12 8.5 30.5t21.5 34t27.5 27t26.5 11.5 t26.5 -11.5t28 -27t21.5 -34t8 -30.5t-8 -30.5t-21.5 -34t-28 -26.5t-26.5 -11t-26.5 11t-27.5 26.5t-21.5 34t-8.5 30.5z" />
<glyph unicode="&#xf8;" horiz-adv-x="1120" d="M76 463q0 106 38 195.5t103.5 154t154.5 100t193 35.5q154 0 271 -76l90 111l63 -53l-88 -109q72 -66 112 -156.5t40 -201.5q0 -106 -37 -194.5t-102.5 -153t-154.5 -100t-194 -35.5q-78 0 -147.5 20t-128.5 57l-90 -112l-64 53l88 111q-68 66 -107.5 154.5t-39.5 199.5z M207 463q0 -78 25.5 -143.5t68.5 -112.5l459 569q-86 57 -195 58q-76 0 -141.5 -28t-113.5 -77t-75.5 -116.5t-27.5 -149.5zM365 152q90 -57 200 -58q74 0 138.5 26.5t113.5 76t77 117t28 149.5q0 78 -26 144.5t-73 115.5z" />
<glyph unicode="&#xf9;" horiz-adv-x="1019" d="M121 303v625h129v-613q0 -98 65.5 -160.5t190.5 -62.5q121 0 192.5 62.5t71.5 160.5v613h129v-928h-117l-4 113q-37 -53 -108.5 -93t-194.5 -40q-76 0 -140.5 22.5t-112.5 63t-74.5 101t-26.5 136.5zM258 1225l23 104q66 -66 153.5 -112t175.5 -70l-63 -62 q-78 20 -150.5 53t-138.5 87z" />
<glyph unicode="&#xfa;" horiz-adv-x="1019" d="M121 303v625h129v-613q0 -98 65.5 -160.5t190.5 -62.5q121 0 192.5 62.5t71.5 160.5v613h129v-928h-117l-4 113q-37 -53 -108.5 -93t-194.5 -40q-76 0 -140.5 22.5t-112.5 63t-74.5 101t-26.5 136.5zM426 1147q88 25 176 71t154 111l22 -104q-66 -53 -138.5 -86 t-150.5 -54z" />
<glyph unicode="&#xfb;" horiz-adv-x="1019" d="M121 303v625h129v-613q0 -98 65.5 -160.5t190.5 -62.5q121 0 192.5 62.5t71.5 160.5v613h129v-928h-117l-4 113q-37 -53 -108.5 -93t-194.5 -40q-76 0 -140.5 22.5t-112.5 63t-74.5 101t-26.5 136.5zM293 1145q68 31 125 82t102 112q43 -61 100.5 -112t124.5 -82l-59 -58 q-51 23 -91 50.5t-75 68.5q-35 -41 -77 -68.5t-91 -50.5z" />
<glyph unicode="&#xfc;" horiz-adv-x="1019" d="M121 303v625h129v-613q0 -98 65.5 -160.5t190.5 -62.5q121 0 192.5 62.5t71.5 160.5v613h129v-928h-117l-4 113q-37 -53 -108.5 -93t-194.5 -40q-76 0 -140.5 22.5t-112.5 63t-74.5 101t-26.5 136.5zM322 1174q0 12 8 26t19 28.5t23.5 24t22.5 9.5t23.5 -9.5t25 -24 t18.5 -28.5t7 -26q0 -10 -7 -25.5t-18.5 -29t-24.5 -23t-24 -9.5q-10 0 -22.5 9.5t-23.5 23t-19 28.5t-8 26zM563 1174q0 12 7.5 26t18.5 28.5t23.5 24t22.5 9.5t22.5 -9.5t23.5 -24t18.5 -28.5t7.5 -26q0 -10 -7.5 -25.5t-18.5 -29t-23.5 -23t-22.5 -9.5t-22.5 9.5 t-23.5 23t-18.5 28.5t-7.5 26z" />
<glyph unicode="&#xfd;" horiz-adv-x="950" d="M-16 -395q131 41 233 152.5t193 324.5l-359 846h135l199 -467q23 -55 46.5 -113.5t45.5 -120.5h4q23 59 45.5 115.5t46.5 114.5l201 471h125l-360 -848q-106 -250 -222 -379t-254 -178zM377 1147q88 25 176 71t154 111l22 -104q-66 -53 -138.5 -86t-150.5 -54z" />
<glyph unicode="&#xfe;" horiz-adv-x="1083" d="M135 -473v1931h129v-596q49 41 121 63.5t156 22.5q86 0 170 -32.5t149.5 -95t106.5 -152.5t41 -203q0 -106 -37 -195.5t-102.5 -154t-154.5 -100t-194 -35.5q-78 0 -146.5 22.5t-109.5 52.5v-528h-129zM264 193q41 -41 109.5 -70t146.5 -29q76 0 140.5 28t112.5 77 t76 116.5t28 149.5t-28 149.5t-76 116.5t-112.5 76t-140.5 27q-80 0 -145.5 -27t-110.5 -74v-540z" />
<glyph unicode="&#xff;" horiz-adv-x="950" d="M-16 -395q131 41 233 152.5t193 324.5l-359 846h135l199 -467q23 -55 46.5 -113.5t45.5 -120.5h4q23 59 45.5 115.5t46.5 114.5l201 471h125l-360 -848q-106 -250 -222 -379t-254 -178zM283 1167q0 10 8 25.5t19.5 29t23.5 23.5t22 10t22.5 -10t24 -23.5t19.5 -29 t8 -25.5t-8 -25.5t-19.5 -29.5t-23.5 -23.5t-23 -9.5q-10 0 -22 9.5t-23.5 23.5t-19.5 29.5t-8 25.5zM522 1167q0 10 8.5 25.5t19.5 29t23.5 23.5t22.5 10t22.5 -10t23.5 -23.5t18.5 -29t7.5 -25.5t-7.5 -25.5t-18.5 -29.5t-23.5 -23.5t-22.5 -9.5t-22.5 9.5t-23.5 23.5 t-19.5 29.5t-8.5 25.5z" />
<glyph unicode="&#x152;" horiz-adv-x="1955" d="M86 655q0 152 56.5 276t150.5 213t218 137t259 48q111 0 210 -31.5t183 -89.5v99h682v-119h-545v-471h447v-119h-447v-479h617v-119h-754v100q-84 -59 -183 -91t-210 -32q-135 0 -259 48.5t-218 137.5t-150.5 214t-56.5 278zM225 655q0 -127 45 -229t120 -175t173.5 -113 t206.5 -40q113 0 215 42t178 116v797q-76 72 -178 114.5t-215 42.5q-109 0 -207 -40t-173 -111.5t-120 -175t-45 -228.5z" />
<glyph unicode="&#x153;" horiz-adv-x="1835" d="M76 463q0 106 38 195.5t103.5 154t154.5 100t193 35.5q141 0 252 -66.5t168 -176.5q59 115 163.5 179t219.5 64q96 0 169 -29.5t122 -78.5t74.5 -112t25.5 -126q0 -16 -1 -32.5t-3 -30.5l-78 -76h-620q-4 -70 20.5 -136.5t73.5 -117.5t118.5 -83t155.5 -32q82 0 152 21.5 t137 70.5l-37 -143q-53 -31 -116.5 -47t-151.5 -16q-137 0 -248.5 65.5t-171.5 179.5q-59 -113 -170.5 -179t-253.5 -66q-104 0 -193 35.5t-154.5 100t-103.5 152.5t-38 195zM207 463q0 -82 27.5 -149.5t75.5 -117t113.5 -76t141.5 -26.5q74 0 138.5 26.5t113.5 76t77 117 t28 149.5t-28 149.5t-77 116.5t-113.5 77t-138.5 28q-76 0 -141.5 -28t-113.5 -77t-75.5 -116.5t-27.5 -149.5zM1067 569h559q2 9 2 27q0 41 -16.5 83t-48 77t-78.5 57.5t-111 22.5q-57 0 -108.5 -22.5t-92 -59.5t-69.5 -85t-37 -100z" />
<glyph unicode="&#x178;" horiz-adv-x="1183" d="M25 1307h151l283 -400q31 -45 67.5 -98t67.5 -100h4q31 47 65.5 99t69.5 99l285 400h141l-502 -703v-604h-135v604zM360 1569q0 12 9.5 30.5t22.5 35t28.5 28t25.5 11.5q12 0 27.5 -11.5t28 -28t21.5 -35t9 -30.5t-9 -29.5t-21.5 -34t-27.5 -27.5t-28 -11q-10 0 -25.5 11 t-28.5 27.5t-22.5 34t-9.5 29.5zM643 1569q0 12 9 30.5t21.5 35t28 28t27.5 11.5t26.5 -11.5t28 -28t21.5 -35t8 -30.5t-8 -29.5t-21.5 -34t-28 -27.5t-26.5 -11t-27.5 11t-28 27.5t-21.5 34t-9 29.5z" />
<glyph unicode="&#x2c6;" d="M102 1126q78 35 145.5 95.5t121.5 132.5q51 -72 118.5 -132.5t147.5 -95.5l-72 -69q-59 29 -106 61.5t-88 79.5q-41 -47 -89.5 -80t-107.5 -61z" />
<glyph unicode="&#x2dc;" d="M84 1081l22 107q61 39 132 66.5t147 31.5l33 -115q59 4 121.5 31t115.5 60l-22 -105q-59 -43 -130 -68.5t-149 -29.5l-32 112q-57 -4 -121 -29.5t-117 -60.5z" />
<glyph unicode="&#x2000;" horiz-adv-x="929" />
<glyph unicode="&#x2001;" horiz-adv-x="1858" />
<glyph unicode="&#x2002;" horiz-adv-x="929" />
<glyph unicode="&#x2003;" horiz-adv-x="1858" />
<glyph unicode="&#x2004;" horiz-adv-x="619" />
<glyph unicode="&#x2005;" horiz-adv-x="464" />
<glyph unicode="&#x2006;" horiz-adv-x="309" />
<glyph unicode="&#x2007;" horiz-adv-x="309" />
<glyph unicode="&#x2008;" horiz-adv-x="232" />
<glyph unicode="&#x2009;" horiz-adv-x="371" />
<glyph unicode="&#x200a;" horiz-adv-x="103" />
<glyph unicode="&#x2010;" horiz-adv-x="692" d="M90 512v111h512v-111h-512z" />
<glyph unicode="&#x2011;" horiz-adv-x="692" d="M90 512v111h512v-111h-512z" />
<glyph unicode="&#x2012;" horiz-adv-x="692" d="M90 512v111h512v-111h-512z" />
<glyph unicode="&#x2013;" horiz-adv-x="1204" d="M90 512v111h1024v-111h-1024z" />
<glyph unicode="&#x2014;" horiz-adv-x="1716" d="M90 512v111h1536v-111h-1536z" />
<glyph unicode="&#x2018;" horiz-adv-x="382" d="M96 1130q0 29 14.5 71t38 88t54 90t63.5 79l60 -8q-47 -59 -78 -121.5t-35 -105.5q20 -6 48 -36t28 -57q0 -14 -10.5 -33.5t-25.5 -37t-31.5 -29.5t-28.5 -12t-29 12t-32 28.5t-25.5 36t-10.5 35.5z" />
<glyph unicode="&#x2019;" horiz-adv-x="382" d="M57 1036q47 57 77 120t36 108q-10 2 -23.5 12t-24.5 23.5t-19.5 27.5t-8.5 27q0 14 10.5 34.5t25.5 38t31.5 29.5t28.5 12t29 -12t32 -29.5t25.5 -37t10.5 -35.5q0 -29 -14.5 -70t-38 -87t-55.5 -90t-64 -79z" />
<glyph unicode="&#x201a;" horiz-adv-x="382" d="M57 -227q47 57 77 119.5t36 107.5q-23 6 -49.5 36t-26.5 56q0 14 10.5 33.5t25.5 37t31.5 30t28.5 12.5t29 -12.5t32 -29t25.5 -37t10.5 -34.5q0 -29 -14.5 -70.5t-38 -88t-55.5 -90.5t-64 -79z" />
<glyph unicode="&#x201c;" horiz-adv-x="700" d="M96 1130q0 29 14.5 71t38 88t54 90t63.5 79l60 -8q-47 -57 -78 -119.5t-35 -107.5q20 -6 48 -36t28 -57q0 -14 -10.5 -33.5t-25.5 -37t-31.5 -29.5t-28.5 -12t-29 12t-32 28.5t-25.5 36t-10.5 35.5zM414 1133q0 29 14 69.5t37.5 86.5t54.5 91t64 80l59 -10 q-47 -57 -77.5 -119.5t-35.5 -107.5q10 -4 23.5 -13.5t25 -22.5t19.5 -27.5t8 -26.5q0 -16 -10 -36t-25.5 -37.5t-32 -29.5t-28.5 -12t-28.5 12t-32 29.5t-25.5 37t-10 36.5z" />
<glyph unicode="&#x201d;" horiz-adv-x="700" d="M57 1036q47 57 77 120t36 108q-10 2 -23.5 12t-24.5 23.5t-19.5 27.5t-8.5 27q0 14 10.5 34.5t25.5 38t31.5 29.5t28.5 12t29 -12t32 -29.5t25.5 -37t10.5 -35.5q0 -29 -14.5 -70t-38 -87t-55.5 -90t-64 -79zM375 1036q47 57 77.5 121t34.5 107q-10 2 -23 12t-24.5 23.5 t-19.5 27.5t-8 27q0 14 10 34.5t25.5 38t32 29.5t28.5 12t28.5 -12t32 -29.5t25.5 -37t10 -35.5q0 -29 -14.5 -70t-38 -87t-54 -90t-63.5 -79z" />
<glyph unicode="&#x201e;" horiz-adv-x="681" d="M51 -227q45 57 76 119.5t37 107.5q-23 6 -49.5 36t-26.5 56q0 14 10.5 33.5t24.5 37t31.5 30t29.5 12.5q10 0 26.5 -12.5t32 -29t27 -37t11.5 -34.5q0 -29 -14.5 -70.5t-39 -88t-55.5 -90.5t-63 -79zM369 -225q45 57 75.5 119.5t36.5 105.5q-10 2 -23.5 12.5t-24.5 24.5 t-19 28.5t-8 26.5q0 14 10 33.5t25.5 37t31.5 30t29 12.5q12 0 28.5 -12.5t32 -29t25.5 -37t10 -34.5q0 -29 -14.5 -70.5t-39 -87t-55 -90.5t-63.5 -80z" />
<glyph unicode="&#x2022;" horiz-adv-x="765" d="M111 567q0 59 20.5 108.5t57 85.5t87 56.5t107.5 20.5t107.5 -20.5t87 -56.5t57 -85.5t20.5 -108.5t-20.5 -108t-57 -85t-87 -55.5t-107.5 -19.5t-107.5 19.5t-87 55.5t-57 85t-20.5 108z" />
<glyph unicode="&#x2026;" horiz-adv-x="1050" d="M92 92q0 14 10.5 33.5t24.5 37t31.5 30t29.5 12.5t30 -12.5t32 -30t24.5 -37t10.5 -33.5t-10.5 -33.5t-24.5 -37t-31.5 -29.5t-30.5 -12q-12 0 -29.5 12t-31.5 29.5t-24.5 37t-10.5 33.5zM428 92q0 14 10.5 33.5t24.5 37t31.5 30t29.5 12.5t29.5 -12.5t32 -30t25 -37 t10.5 -33.5t-10.5 -33.5t-25 -37t-31.5 -29.5t-30 -12q-12 0 -29.5 12t-31.5 29.5t-24.5 37t-10.5 33.5zM764 92q0 14 10 33.5t24.5 37t32 30t29.5 12.5q14 0 30.5 -12.5t32 -30t25.5 -37t10 -33.5t-10 -33.5t-25.5 -37t-32 -29.5t-30.5 -12q-12 0 -29.5 12t-32 29.5 t-24.5 37t-10 33.5z" />
<glyph unicode="&#x202f;" horiz-adv-x="371" />
<glyph unicode="&#x2039;" horiz-adv-x="462" d="M10 567q102 68 187.5 159t138.5 187l74 -73q-37 -78 -95.5 -148.5t-124.5 -124.5q66 -53 124.5 -123.5t95.5 -148.5l-74 -74q-53 96 -138 188.5t-188 157.5z" />
<glyph unicode="&#x203a;" horiz-adv-x="462" d="M51 295q37 78 95.5 148.5t123.5 123.5q-66 53 -124 124t-95 149l74 73q53 -96 139.5 -187t188.5 -159q-102 -66 -188.5 -158t-139.5 -188z" />
<glyph unicode="&#x205f;" horiz-adv-x="464" />
<glyph unicode="&#x2122;" horiz-adv-x="851" d="M45 1253v54h289v-54h-115v-325h-59v325h-115zM360 928l29 379h39l139 -285l138 285h40l29 -379h-57l-19 243l-123 -245h-22l-119 241l-18 -239h-56z" />
<glyph unicode="&#x25fc;" horiz-adv-x="931" d="M0 0v932h932v-932h-932z" />
</font>
</defs>
</svg>
